Loading...
Error

Скачать Безумие / Sileni (Ян Шванкмайер / Jan Svankmajer) [2005, сюрреализм, ужасы, DVDRip] [AVC] [~Romych~] торрент без регистрации

 
Статистика раздачи
Размер:  2,18 GB   |    Скачан:  158 раз
Сидов:  1  [  0 KB/s  ]  
 
Автор Сообщение

Marsianka

[] 

Безумие / Sileni

Страна: Чехия, Словакия
Жанр: сюрреализм, ужасы
Год выпуска: 2005
Продолжительность: 01:57:31

Перевод: авторский (одноголосый) - Антон Алексеев

Cубтитры: русские, автор - leburs

Оригинальная аудиодорожка: чешская

Режиссер: Ян Шванкмайер / Jan Svankmajer

В ролях: Павел Лишка, Ян Тришка, Анна Гейслерова, Ярослав Душек, Мартин Губа, Павел Новы, Стано Данчак, Иржи Критинарж, Ива Литтманова и другие

Описание: Великий чешский аниматор положил в основу своей сюрреалистической фантазии рассказ Эдгара По "Преждевременные похороны", изрядно нашпиговав его отсылками к Маркизу де Саду в первую очередь, к его трактовке телесности.
-
Франция, XIX век. Молодого человека Жана Берло преследуют кошмары, в которых его отправляют в сумасшедший дом. Возвращаясь с похорон матери, юноша знакомится с Маркизом, который приглашает его провести ночь в замке.
Качество видео: DVDRip-AVC
Формат видео: MKV
Автор рипа: Romych

Видео кодек: x264
Видео: x264, 720x400, 25fps, 2020 kbps, 0.281 bit/pixel

Аудио кодек: AC3 ACM Codec
Аудио 1: AC3 Dolby Digital, stereo/2.0 (L,R), CBR 192 kbps, 48000Hz (RUS AVO)
Аудио 2: AC3 Dolby Digital, 6Ch/5.1 (L,C,R,l,r) + LFE ch, CBR 448 kbps, 48000Hz (СHEZCH)

Формат субтитров: softsub (SRT)
Дополнительная информация:
-AVC-DVD-Rip сделан из оригинального издания 'DVD9' фильма;
-Автор AVC-DVD-rip'а - я, т.е. - Romych ~^___^~;
-Не рекомендуется к просмотру лицам, не достигшим 16 лет;

"Дамы и господа, фильм, который вы сейчас увидите -
фильм ужаса, со всем упадничеством, присущим этому жанру.
Это не произведение искусства. Сегодня искусство почти мертво,
его заменило некое рекламное отображение лица Нарцисса в зеркале воды.

Можно воспринимать этот фильм как посвящение Эдгару По,
у которого я позаимствовал некоторые мотивы, и Mаркизу Де Саду,
которому этот фильм обязан богохульством и всеми ниспровергающими идеями.

В сущности, фильм предлагает идеологическую дискуссию о том,
как управлять сумасшедшим домом. В принципе, существует два способа это делать.
Оба в равной степени экстремальны.

Один поощряет абсолютную свободу, другой, старый и опробованный, -
абсолютный надзор и наказание.

Но есть и третий метод, который комбинирует и
обобщает худшие стороны двух первых.
Это сумасшедший дом, в котором мы живём."
-"В фильме соединены реалии сегодняшнего дня и исторические декорации все это аллегории современного мира. А сумасшедший дом это его репрезентативная декорация", - написал Шванкмайер;
-Литературный сценарий фильма, написанный по мотивам двух рассказов Эдгара По - "Заживо Погребённый" и "Безумный Психиатр", а также под влиянием романов Маркиза де Сада - Шванкмайер создал тридцать лет назад. Но руководство социалистической кинематографии отказалось тогда от постановки. Через тридцать лет Шванкмайер осуществил свою мечту;
-"В фильме нет однозначных ответов на эти вопросы, - говорит постоянный продюсер и ближайший сподвижник Яна Шванкмайера Яромир Каллиста. - Все фильмы Яна Шванкмайера сделаны так, что расшифровать загадки должен сам зритель согласно своему личному опыту, собственным симпатиям и антипатиям. И в политике. Конечно, фигуры в фильме многозначны, таинственны и обладают многими знаками и признаками. Поэтому о фильмах Шванкмайера так много говорят и спорят... Шванкмайер всегда дает своим фильмам смешные подзаголовки: например, фильм "Sileni" мы назвали "философским фильмом ужасов";
-2 номинации на "Чешские Львы" в номинациях "Лучший арт-директор" Ева Шванкмайерова, "лучший плакат".
-2 премии за "Лучший режиссёр" (Ян Шванкмайер) и "Лучший актёр" (Ян Тришка).

General
Unique ID : 226863373287068625138294899367454890647 (0xAAAC4BE0342399D2A33C9AE2662ADA97)
Complete name : C:UploadSileni_AVC-DVD-Rip by RomychSileni.mkv
Format : Matroska
Format version : Version 2
File size : 2.18 GiB
Duration : 1h 57mn
Overall bit rate : 2 661 Kbps
Encoded date : UTC 2011-10-15 13:13:20
Writing application : mkvmerge v2.9.7 ('Tenderness') built on Jul 1 2009 18:43:35
Writing library : libebml v0.7.7 + libmatroska v0.8.1

Video
ID : 1
Format : AVC
Format/Info : Advanced Video Codec
Format profile : High@L4.1
Format settings, CABAC : Yes
Format settings, ReFrames : 4 frames
Codec ID : V_MPEG4/ISO/AVC
Duration : 1h 57mn
Bit rate : 2 020 Kbps
Width : 720 pixels
Height : 400 pixels
Display aspect ratio : 16:9
Frame rate : 25.000 fps
Color space : YUV
Chroma subsampling : 4:2:0
Bit depth : 8 bits
Scan type : Progressive
Bits/(Pixel*Frame) : 0.281
Stream size : 1.62 GiB (74%)
Title : 'Sileni'_ripped by Romych
Writing library : x264 core 116 r2074 2641b9e
Encoding settings : cabac=1 / ref=4 / deblock=1:-1:-1 / analyse=0x3:0x113 / me=umh / subme=6 / psy=1 / psy_rd=1.00:0.00 / mixed_ref=1 / me_range=16 / chroma_me=1 / trellis=2 / 8x8dct=1 / cqm=0 / deadzone=21,11 / fast_pskip=1 / chroma_qp_offset=-2 / threads=3 / sliced_threads=0 / nr=0 / decimate=1 / interlaced=0 / bluray_compat=0 / constrained_intra=0 / bframes=3 / b_pyramid=2 / b_adapt=2 / b_bias=0 / direct=3 / weightb=1 / open_gop=0 / weightp=2 / keyint=250 / keyint_min=25 / scenecut=40 / intra_refresh=0 / rc_lookahead=40 / rc=2pass / mbtree=0 / bitrate=2020 / ratetol=1.0 / qcomp=0.60 / qpmin=10 / qpmax=51 / qpstep=4 / cplxblur=20.0 / qblur=0.5 / vbv_maxrate=50000 / vbv_bufsize=50000 / nal_hrd=none / ip_ratio=1.40 / pb_ratio=1.30 / aq=1:1.00
Language : Czech

Audio #1
ID : 2
Format : AC-3
Format/Info : Audio Coding 3
Mode extension : CM (complete main)
Codec ID : A_AC3
Duration : 1h 57mn
Bit rate mode : Constant
Bit rate : 192 Kbps
Channel(s) : 2 channels
Channel positions : Front: L R
Sampling rate : 48.0 KHz
Bit depth : 16 bits
Compression mode : Lossy
Stream size : 161 MiB (7%)
Title : AVO Alekseev
Language : Russian

Audio #2
ID : 3
Format : AC-3
Format/Info : Audio Coding 3
Mode extension : CM (complete main)
Codec ID : A_AC3
Duration : 1h 57mn
Bit rate mode : Constant
Bit rate : 448 Kbps
Channel(s) : 6 channels
Channel positions : Front: L C R, Side: L R, LFE
Sampling rate : 48.0 KHz
Bit depth : 16 bits
Compression mode : Lossy
Stream size : 377 MiB (17%)
Title : Original
Language : Czech

Text
ID : 4
Format : UTF-8
Codec ID : S_TEXT/UTF8
Codec ID/Info : UTF-8 Plain Text
Title : by leburs
Language : Russian

Представляем для ознакомления:
Сэмпл-1
Сэмпл-2



Скачать Безумие.Sileni.(Ян.Шванкмайер.Jan.Svankmajer).[2005.сюрреализм.ужасы.DVDRip].[AVC].[~Romych~].torrent без регистрации
Золото ЗОЛОТАЯ РАЗДАЧА! СКАЧАННОЕ НЕ ЗАСЧИТЫВАЕТСЯ! Золото
Дата: Зарегистрирован   [ Тип: внутренний ] Как тут cкачать?
MAGNET ссылка
MAGNET ссылка


Скачать .torrent

11 KB

Статус: проверено DHT
Скачан: торрент - 158 раз, раздача полностью - 354 раз
Размер: 2,18 GB
Оценка:  - (Голосов: 0)
Поблагодарили: 0
Поделиться ссылкой на эту раздачу с друзьями:
В контактеFacebookОдноклассникиTwitterLivejournalМой МирLiveinternet
 

 
Показать сообщения:    


Вы не можете начинать темы
Вы не можете отвечать на сообщения
Вы не можете редактировать свои сообщения
Вы не можете удалять свои сообщения
Вы не можете голосовать в опросах
Вы не можете прикреплять файлы к сообщениям
Вы можете скачивать файлы