Loading...
Error

Скачать Икс / X (Джон Хьюит) [2011, триллер, BDRemux] [DVO] торрент без регистрации

 
Статистика раздачи
Размер:  15,33 GB   |    Скачан:  121 раз
Сидов:  1  [  0 KB/s  ]  
 
Автор Сообщение

МихаНЕзатор

[] 

Информация о фильме
Название: Икс
Оригинальное название: X
Год выхода: 2011
Жанр: триллер
Режиссер: Джон Хьюит

В ролях: Вива Бьянка, Вейн Блэр, Питер Докер, Имон Фэррен, Джордан Филдинг, Burnetta Hampson, Наташа Херберт, Ребекка Ирвин, Ханна Мэнгэн Лоуренс, Белинда МакКлори

О фильме:
Австралийская криминальная драмы Джона Хьитта X, в которой главные роли сыграли стервозная блондинка Вива Бьянка из сериала «Спартак: Кровь и песок» и 19-летняя британка Ханна Мэнгэн Лоуренс. Первая проститутка со стажем, решившая завязать, вторая совсем сопливая девчонка, вышедшая в свою первую рабочую ночь. Скооперировавшись, дамочки отправляются на работу, но вляпываются в жуткую историю, связавшись с местными отморозками.



Страна: Австралия
Продолжительность: 01:29:48
Перевод: Любительский (двухголосый)

Файл
Кодек: MKV
Качество: BDRemux
Видео: 1920x1080, 23.976fps, x264, 21.9 Mbps
Аудио: (RUS) AC-3 5.1, 48 kHz, 16 bits, 448 kbps
Аудио: (ENG) DTS-HD MA 5.1, 48 kHz, 16 bits, 2075 kbps (ядро: DTS 5.1, 48 kHz, 16 bits, 1509 kbps)
Cубтитры: английские

General
Unique ID : 192387248796946306649548681332200721033 (0x90BC6FB3D2B1C854B6289D45867A4A89)
Complete name : X.2011.L2.Rus.Eng.BDRemux.x264.mkv
Format : Matroska
Format version : Version 2
File size : 15.3 GiB
Duration : 1h 29mn
Overall bit rate mode : Variable
Overall bit rate : 24.4 Mbps
Encoded date : UTC 2011-10-26 23:14:21
Writing application : mkvmerge v5.0.1 ('Es ist Sommer') built on Oct 9 2011 11:55:43
Writing library : libebml v1.2.2 + libmatroska v1.3.0

Video
ID : 1
Format : AVC
Format/Info : Advanced Video Codec
Format profile : High@L4.1
Format settings, CABAC : Yes
Format settings, ReFrames : 4 frames
Muxing mode : Container profile=Unknown@0.0
Codec ID : V_MPEG4/ISO/AVC
Duration : 1h 29mn
Bit rate mode : Variable
Bit rate : 21.9 Mbps
Maximum bit rate : 39.0 Mbps
Width : 1 920 pixels
Height : 1 080 pixels
Display aspect ratio : 16:9
Frame rate : 23.976 fps
Color space : YUV
Chroma subsampling : 4:2:0
Bit depth : 8 bits
Scan type : Progressive
Bits/(Pixel*Frame) : 0.441
Stream size : 13.8 GiB (90%)
Language : English
Color primaries : BT.709-5, BT.1361, IEC 61966-2-4, SMPTE RP177
Transfer characteristics : BT.709-5, BT.1361
Matrix coefficients : BT.709-5, BT.1361, IEC 61966-2-4 709, SMPTE RP177

Audio #1
ID : 2
Format : AC-3
Format/Info : Audio Coding 3
Mode extension : CM (complete main)
Codec ID : A_AC3
Duration : 1h 29mn
Bit rate mode : Constant
Bit rate : 448 Kbps
Channel(s) : 6 channels
Channel positions : Front: L C R, Side: L R, LFE
Sampling rate : 48.0 KHz
Bit depth : 16 bits
Compression mode : Lossy
Stream size : 288 MiB (2%)
Language : Russian

Audio #2
ID : 3
Format : DTS
Format/Info : Digital Theater Systems
Format profile : MA / Core
Codec ID : A_DTS
Duration : 1h 29mn
Bit rate mode : Variable
Bit rate : 1 561 Kbps / 1 510 Kbps
Channel(s) : 6 channels
Channel positions : Front: L C R, Side: L R, LFE
Sampling rate : 48.0 KHz
Bit depth : 16 bits
Compression mode : Lossless / Lossy
Language : English

Text
ID : 4
Format : UTF-8
Codec ID : S_TEXT/UTF8
Codec ID/Info : UTF-8 Plain Text
Language : English




Скачать Икс.X.(Джон.Хьюит).[2011.триллер.BDRemux].[DVO].torrent без регистрации
Золото ЗОЛОТАЯ РАЗДАЧА! СКАЧАННОЕ НЕ ЗАСЧИТЫВАЕТСЯ! Золото
Дата: Зарегистрирован   [ Тип: внутренний ] Как тут cкачать?
MAGNET ссылка
MAGNET ссылка


Скачать .torrent

39 KB

Статус: проверено DHT
Скачан: торрент - 121 раз, раздача полностью - 6 раз
Размер: 15,33 GB
Оценка:  - (Голосов: 0)
Поблагодарили: 0
Поделиться ссылкой на эту раздачу с друзьями:
В контактеFacebookОдноклассникиTwitterLivejournalМой МирLiveinternet
 

 
Показать сообщения:    


Вы не можете начинать темы
Вы не можете отвечать на сообщения
Вы не можете редактировать свои сообщения
Вы не можете удалять свои сообщения
Вы не можете голосовать в опросах
Вы не можете прикреплять файлы к сообщениям
Вы можете скачивать файлы