Loading...
Error

Скачать Этот безумный, безумный, безумный, безумный мир / It's a mad, mad, mad, mad world (Стэнли Крамер /Stanley Kramer) [1963, Боевик, Комедия, Криминал, Приключения, BDRip] торрент без регистрации

 
Статистика раздачи
Размер:  1,47 GB   |    Скачан:  185 раз
Сидов:  2  [  0 KB/s  ]  
 
Автор Сообщение

Marsianka

[] 

Информация о фильме
Название: Это безумный, безумный, безумный, безумный мир
Оригинальное название: It's a Mad Mad Mad Mad World
Год выхода: 1963
Жанр: боевик, комедия, криминал, приключения
Режиссер: Стэнли Крамер / Stanley Kramer
В ролях: Спенсер Трэйси, Милтон Берл, Сид Сизар, Бадди Хэкетт, Этель Мерман, Микки Руни, Дик Шоун, Фил Силверс, Терри-Томас, Джонатан Уинтерс, Эди Адамс, Дороти Провайн, Эдди Рочестер Андерсон, Джим Бакус, Бен Блу, Джо Э. Браун, Алан Карни, Чик Чандлер

О фильме:
По дороге в Лас-Вегас мчатся автомобили. В первом едет бизнесмен с женой и тещей. Во втором дантист с супругой. В третьем парочка приятелей. Они не знакомы друг с другом и вряд ли когда-нибудь встретились бы.

Все они становятся свидетелями аварии. А единственный пострадавший перед смертью открывает тайну: под Большим W он спрятал клад. И вот путешественники превращаются в пиратов. Они наперегонки несутся за сокровищами, пытаясь по дороге посильней испортить жизнь конкурентам


Страна: США
Студия: United Artists
Продолжительность: 02:39:29
Перевод: Профессиональный (многоголосый закадровый) | [ДВД Магия]

Файл
Кодек: XviD / MP3
Качество: BDRip
Видео: XviD, 704x256 (2.75:1), 23.976 fps, 1184 kbps, 0.27 bit/pixel
Звук: MP3, 48 kHz, 2 ch, 128.00 kbps

Семпл
General
Complete name : E:It's.a.Mad.Mad.Mad.Mad.World_1400_[Rutor.org].avi
Format : AVI
Format/Info : Audio Video Interleave
File size : 1.47 GiB
Duration : 2h 39mn
Overall bit rate : 1 322 Kbps
Writing application : VirtualDubModRus 1.5.10.2 (build 2542/release)

Video
ID : 0
Format : MPEG-4 Visual
Format profile : Advanced Simple@L5
Format settings, BVOP : 1
Format settings, QPel : No
Format settings, GMC : No warppoints
Format settings, Matrix : Custom
Codec ID : XVID
Codec ID/Hint : XviD
Duration : 2h 39mn
Bit rate : 1 184 Kbps
Width : 704 pixels
Height : 256 pixels
Display aspect ratio : 2.750
Frame rate : 23.976 fps
Color space : YUV
Chroma subsampling : 4:2:0
Bit depth : 8 bits
Scan type : Progressive
Compression mode : Lossy
Bits/(Pixel*Frame) : 0.274
Stream size : 1.32 GiB (90%)
Writing library : XviD 63

Audio
ID : 1
Format : MPEG Audio
Format version : Version 1
Format profile : Layer 3
Codec ID : 55
Codec ID/Hint : MP3
Duration : 2h 39mn
Bit rate mode : Constant
Bit rate : 128 Kbps
Channel(s) : 2 channels
Sampling rate : 48.0 KHz
Compression mode : Lossy
Stream size : 146 MiB (10%)
Alignment : Aligned on interleaves
Interleave, duration : 42 ms (1.00 video frame)
Interleave, preload duration : 504 ms



Скачать Этот.безумный.безумный.безумный.безумный.мир.It's.a.mad.mad.mad.mad.world.(Стэнли.Крамер.Stanley.Kramer).[1963.Боевик.Комедия.Криминал.Приключения.BDRip].torrent без регистрации
Золото ЗОЛОТАЯ РАЗДАЧА! СКАЧАННОЕ НЕ ЗАСЧИТЫВАЕТСЯ! Золото
Дата: Зарегистрирован   [ Тип: внутренний ] Как тут cкачать?
MAGNET ссылка
MAGNET ссылка


Скачать .torrent

30 KB

Статус: проверено DHT
Скачан: торрент - 185 раз, раздача полностью - 245 раз
Размер: 1,47 GB
Оценка:  5 (Голосов: 1)
Поблагодарили: 3
Поделиться ссылкой на эту раздачу с друзьями:
В контактеFacebookОдноклассникиTwitterLivejournalМой МирLiveinternet
 

 
Показать сообщения:    


Вы не можете начинать темы
Вы не можете отвечать на сообщения
Вы не можете редактировать свои сообщения
Вы не можете удалять свои сообщения
Вы не можете голосовать в опросах
Вы не можете прикреплять файлы к сообщениям
Вы можете скачивать файлы