Loading...
Error

Скачать Бостонский душитель / Boston Strangler: The Untold Story (Майкл Фейфер) [2008, ужасы, триллер, драма, криминал, детектив, DVDRip] [Лицензия R5] торрент без регистрации

 
Статистика раздачи
Размер:  694 MB   |    Скачан:  114 раз
Сидов:  1  [  0 KB/s  ]  
 
Автор Сообщение

МихаНЕзатор

[] 

Бостонский душитель / Boston Strangler: The Untold Story
Страна: США
Жанр: ужасы, триллер, драма, криминал, детектив
Год выпуска: 2008
Продолжительность: 01:33:11
Перевод: Профессиональный (многоголосый закадровый) R5
Cубтитры: нет
Режиссер: Майкл Фейфер / Michael Feifer

В ролях: Дэвид Фаустино («Наедине с убийцей»), Эндрю Дивофф («Самолет президента»), Джо Торри («Снова в деле»), Костас Соммер, Корин Немек, Jen Nikolaisen, Джонни Лиска, Кайа Коли, Тара Шэйн, Бет Ши.

Описание: Альберт Де Сальво — мелкий жулик и сексуальный маньяк, становится подозреваемым по делу о душителе, наводившем страх на Бостон в начале шестидесятых. Попав под влияние своего сокамерника-манипулятора Фрэнка, явно знающего немало про убийства, он решает обрести известность и нажиться на награде, обещанной за голову преступника.
Заручившись поддержкой продажного прокурора Стюарта Уитмора, эта парочка намерена довести до конца свой дерзкий план. В этом им не помешает даже честный детектив, пытающийся докопаться до правды. В конце концов, завеса тайны, окружавшая убийства в течение 40 лет окажется приподнятой…



Качество видео: DVDRip (Boston.Strangler.The.Untold.Story.2008.STV.DVDRip.XviD-TheWretch)
Формат видео: AVI
Видео: XviD, 904 Kbps, 624 х 352 pixels, 23.976 fps
Аудио: MPEG Layer 3, Joint stereo, 128 Kbps, 2 channels, 48.0 KHz

General
Complete name : D:\Рабочая папка\Boston.Strangler.2008.DVDRip.700MB.avi
Format : AVI
Format/Info : Audio Video Interleave
File size : 694 MiB
Duration : 1h 33mn
Overall bit rate : 1 041 Kbps
Writing application : VirtualDubModRus 1.5.10.2 (build 2542/release)
Writing library : VirtualDubMod build 2542/release
Video
ID : 0
Format : MPEG-4 Visual
Format profile : Advanced Simple@L5
Format settings, BVOP : 1
Format settings, QPel : No
Format settings, GMC : No warppoints
Format settings, Matrix : Default (MPEG)
Muxing mode : Packed bitstream
Codec ID : XVID
Codec ID/Hint : XviD
Duration : 1h 33mn
Bit rate : 904 Kbps
Width : 624 pixels
Height : 352 pixels
Display aspect ratio : 16:9
Frame rate : 23.976 fps
Color space : YUV
Chroma subsampling : 4:2:0
Bit depth : 8 bits
Scan type : Progressive
Compression mode : Lossy
Bits/(Pixel*Frame) : 0.172
Stream size : 603 MiB (87%)
Writing library : XviD 1.1.2 (UTC 2006-11-01)
Audio
ID : 1
Format : MPEG Audio
Format version : Version 1
Format profile : Layer 3
Mode : Joint stereo
Mode extension : MS Stereo
Codec ID : 55
Codec ID/Hint : MP3
Duration : 1h 33mn
Bit rate mode : Constant
Bit rate : 128 Kbps
Channel(s) : 2 channels
Sampling rate : 48.0 KHz
Compression mode : Lossy
Stream size : 85.3 MiB (12%)
Alignment : Aligned on interleaves
Interleave, duration : 42 ms (1.00 video frame)
Interleave, preload duration : 504 ms



Скачать Бостонский.душитель.Boston.Strangler.The.Untold.Story.(Майкл.Фейфер).[2008.ужасы.триллер.драма.криминал.детектив.DVDRip].[Лицензия.R5].torrent без регистрации
Золото ЗОЛОТАЯ РАЗДАЧА! СКАЧАННОЕ НЕ ЗАСЧИТЫВАЕТСЯ! Золото
Дата: Зарегистрирован   [ Тип: внутренний ] Как тут cкачать?
MAGNET ссылка
MAGNET ссылка


Скачать .torrent

14 KB

Статус: проверено DHT
Скачан: торрент - 114 раз, раздача полностью - 4 раз
Размер: 694 MB
Оценка:  - (Голосов: 0)
Поблагодарили: 2
Поделиться ссылкой на эту раздачу с друзьями:
В контактеFacebookОдноклассникиTwitterLivejournalМой МирLiveinternet
 

 
Показать сообщения:    


Вы не можете начинать темы
Вы не можете отвечать на сообщения
Вы не можете редактировать свои сообщения
Вы не можете удалять свои сообщения
Вы не можете голосовать в опросах
Вы не можете прикреплять файлы к сообщениям
Вы можете скачивать файлы