Loading...
Error

Скачать Жена астронавта / The Astronaut's Wife (Рэнд Рэвич / Rand Ravich) [1999 г., фантастика, триллер, DVDRip] торрент без регистрации

 
Статистика раздачи
Размер:  1,46 GB   |    Скачан:  233 раза
Сидов:  1  [  0 KB/s  ]  
 
Автор Сообщение

maxcross

[] 

Жена астронавта / The Astronaut's Wife


Год выпуска: 1999
Выпущено: США
Жанр: фантастика, триллер
Продолжительность: 1:44:37
Перевод: Профессиональный (полное дублирование)

Режиссер: Рэнд Рэвич / Rand Ravich

В ролях: Джонни Депп /Johnny Depp/, Шарлиз Терон /Charlize Theron/, Джо Мортон /Joe Morton/, Клеа ДюВолл /Clea DuVall/, Сэмэнта Эггар /Samantha Eggar/, Донна Мерфи /Donna Murphy/

Описание: Находясь в открытом космосе, астронавт Спенсер Армакост (Джонни Депп) на несколько минут потерял связь с Землей. Но все обошлось, и экипажу удалось вернуться назад. Спенсер и его жена опять были вместе.
Но вскоре Джиллиан (Шарлиз Терон) начинает подозревать, что ее муж стал другим. И если прежде она тревожилась за его жизнь, то теперь стала бояться за свою. Она оказалась один на один с пугающей неизвестностью...


Доп. информация:



Качество: DVDRip
Формат: AVI
Видео кодек: XviD
Аудио кодек: AC3
Видео: 720x384 (1.88:1), 25 fps, XviD build 50 ~1599 kbps avg, 0.23 bit/pixel
Аудио: 48 kHz, AC3 Dolby Digital, 3/2 (L,C,R,l,r) + LFE ch, ~384 kbps

Код:



General
Complete name : J:Ghena astronafta.chopper887.avi
Format : AVI
Format/Info : Audio Video Interleave
File size : 1.46 GiB
Duration : 1h 44mn
Overall bit rate : 1 994 Kbps
Writing application : VirtualDubMod 1.5.10.2 (build 2540/release)
Writing library : VirtualDubMod build 2540/release

Video
ID : 0
Format : MPEG-4 Visual
Format profile : AdvancedSimple@L5
Format settings, BVOP : Yes
Format settings, QPel : No
Format settings, GMC : No warppoints
Format settings, Matrix : Custom
Codec ID : XVID
Codec ID/Hint : XviD
Duration : 1h 44mn
Bit rate : 1 600 Kbps
Width : 720 pixels
Height : 384 pixels
Display aspect ratio : 1.875
Frame rate : 25.000 fps
Resolution : 24 bits
Colorimetry : 4:2:0
Scan type : Progressive
Bits/(Pixel*Frame) : 0.231
Stream size : 1.17 GiB (80%)
Writing library : XviD 1.2.1 (UTC 2008-12-04)

Audio
ID : 1
Format : AC-3
Format/Info : Audio Coding 3
Codec ID : 2000
Duration : 1h 44mn
Bit rate mode : Constant
Bit rate : 384 Kbps
Channel(s) : 6 channels
Channel positions : Front: L C R, Surround: L R, LFE
Sampling rate : 48.0 KHz
Stream size : 287 MiB (19%)
Alignment : Split accross interleaves
Interleave, duration : 40 ms (1.00 video frame)
Interleave, preload duration : 500 ms

Скриншоты:




Скачать Жена.астронавта.The.Astronaut's.Wife.(Рэнд.Рэвич.Rand.Ravich).[1999.г.фантастика.триллер.DVDRip].torrent без регистрации
Золото ЗОЛОТАЯ РАЗДАЧА! СКАЧАННОЕ НЕ ЗАСЧИТЫВАЕТСЯ! Золото
Дата: Зарегистрирован   [ Тип: внутренний ] Как тут cкачать?
MAGNET ссылка
MAGNET ссылка


Скачать .torrent

15 KB

Статус: проверено DHT
Скачан: торрент - 233 раз, раздача полностью - 187 раз
Размер: 1,46 GB
Оценка:  - (Голосов: 0)
Поблагодарили: 0
Поделиться ссылкой на эту раздачу с друзьями:
В контактеFacebookОдноклассникиTwitterLivejournalМой МирLiveinternet
 

 

xays

[] 

год то 1999!
 

maxcross

[] 

сорри исправил, залил как в первоисточнике не посмотрел! az
 

[] 

Топик был перенесен из форума Фильмы 2010 года в форум Фильмы до 2005 года

maxcross
 
Показать сообщения:    


Вы не можете начинать темы
Вы не можете отвечать на сообщения
Вы не можете редактировать свои сообщения
Вы не можете удалять свои сообщения
Вы не можете голосовать в опросах
Вы не можете прикреплять файлы к сообщениям
Вы можете скачивать файлы