Loading...
Error

Скачать Тень «Полярной звезды» / The Shadow in the North (Джон Александр) [2007, триллер, детектив, приключения, DVDRip] [MVO] торрент без регистрации

 
Статистика раздачи
Размер:  1,43 GB   |    Скачан:  118 раз
Сидов:  1  [  0 KB/s  ]  
 
Автор Сообщение

МихаНЕзатор

[] 

Информация о фильме
Название: Тень «Полярной звезды»
Оригинальное название: The Shadow in the North
Год выхода: 2007
Жанр: триллер, детектив, приключения
Режиссер: Джон Александр / John Alexander

В ролях: Билли Пайпер /Billie Piper/, Джей Джей Филд /JJ Feild/, Джулиан Райнд-Татт /Julian Rhind-Tutt/, Джон Стэндинг /John Standing/, Линдси Маршал /Lyndsey Marshal/, Донья Кролл /DoЎa Croll/, Мэтт Смит /Matt Smith/, Джаред Харрис /Jared Harris/, Дэвид Хэрвуд /David Harewood/, Хейли Этвелл /Hayley Atwell/

О фильме:
Тень зла Можно ли вызвать ее на спиритическом сеансе или запечатлеть на фотоснимке?

В мастерской «Гарланд и Локхард» всегда оживленно Фред экспериментирует с новыми камерами и техникой съемок. Повзрослевшая Салли открывает свое дело. Теперь она консультант по финансовым вопросам. Джим пишет пьесы и работает в театре.

Но однажды Салли и ее друзья поневоле становятся детективами. Случайные, казалось бы, события, произошедшие с каждым из них, оказываются звеньями одной цепи. И за всеми стоит владелец компаний «Полярная звезда». Беллман всемогущ. Он торгует смертью и создает чудовищные «паровые ружья». С каждым шагом Салли, Джима и Фреда все сильнее затягивает в зловещую тень «Полярной звезды».



Страна: Великобритания
Студия: British Broadcasting Corporation (BBC)
Продолжительность: 01:34:08
Перевод: Профессиональный (многоголосый, закадровый) / Оригинал

Файл
Кодек: XviD / AC3
Качество: DVDRip
Видео: XviD, 720x400 (16:9), 25.000 fps, 1 788 Kbps (0.248 bit/pixel)
Аудио #1: AC-3, 48.0 KHz, 2 ch, 192 Kbps, CBR (Russian)
Аудио #2: AC-3, 48.0 KHz, 2 ch, 192 Kbps, CBR (English)
General
Complete name : E:The.Shadow.in.the.North_1400_[Rutor.org].avi
Format : AVI
Format/Info : Audio Video Interleave
File size : 1.43 GiB
Duration : 1h 34mn
Overall bit rate : 2 181 Kbps
Writing application : VirtualDubMod 1.5.4.1 (build 2178/release)
Writing library : VirtualDubMod build 2178/release

Video
ID : 0
Format : MPEG-4 Visual
Format profile : Advanced Simple@L5
Format settings, BVOP : 1
Format settings, QPel : No
Format settings, GMC : No warppoints
Format settings, Matrix : Custom
Codec ID : XVID
Codec ID/Hint : XviD
Duration : 1h 34mn
Bit rate : 1 788 Kbps
Width : 720 pixels
Height : 400 pixels
Display aspect ratio : 16:9
Frame rate : 25.000 fps
Color space : YUV
Chroma subsampling : 4:2:0
Bit depth : 8 bits
Scan type : Progressive
Compression mode : Lossy
Bits/(Pixel*Frame) : 0.248
Stream size : 1.18 GiB (82%)
Writing library : XviD 64

Audio #1
ID : 1
Format : AC-3
Format/Info : Audio Coding 3
Mode extension : CM (complete main)
Codec ID : 2000
Duration : 1h 34mn
Bit rate mode : Constant
Bit rate : 192 Kbps
Channel(s) : 2 channels
Channel positions : Front: L R
Sampling rate : 48.0 KHz
Bit depth : 16 bits
Compression mode : Lossy
Stream size : 129 MiB (9%)
Alignment : Split accross interleaves
Interleave, duration : 96 ms (2.40 video frames)
Interleave, preload duration : 96 ms
Language : Russian

Audio #2
ID : 2
Format : AC-3
Format/Info : Audio Coding 3
Mode extension : CM (complete main)
Codec ID : 2000
Duration : 1h 34mn
Bit rate mode : Constant
Bit rate : 192 Kbps
Channel(s) : 2 channels
Channel positions : Front: L R
Sampling rate : 48.0 KHz
Bit depth : 16 bits
Compression mode : Lossy
Stream size : 129 MiB (9%)
Alignment : Split accross interleaves
Interleave, duration : 96 ms (2.40 video frames)
Interleave, preload duration : 96 ms
Language : English



Скачать Тень.«Полярной.звезды».The.Shadow.in.the.North.(Джон.Александр).[2007.триллер.детектив.приключения.DVDRip].[MVO].torrent без регистрации
Золото ЗОЛОТАЯ РАЗДАЧА! СКАЧАННОЕ НЕ ЗАСЧИТЫВАЕТСЯ! Золото
Дата: Зарегистрирован   [ Тип: внутренний ] Как тут cкачать?
MAGNET ссылка
MAGNET ссылка


Скачать .torrent

15 KB

Статус: проверено DHT
Скачан: торрент - 118 раз, раздача полностью - 7 раз
Размер: 1,43 GB
Оценка:  - (Голосов: 0)
Поблагодарили: 0
Поделиться ссылкой на эту раздачу с друзьями:
В контактеFacebookОдноклассникиTwitterLivejournalМой МирLiveinternet
 

 
Показать сообщения:    


Вы не можете начинать темы
Вы не можете отвечать на сообщения
Вы не можете редактировать свои сообщения
Вы не можете удалять свои сообщения
Вы не можете голосовать в опросах
Вы не можете прикреплять файлы к сообщениям
Вы можете скачивать файлы