Loading...
Error

Скачать Тень «Полярной звезды» / The Shadow in the North (Джон Александр / John Alexander) [2007, триллер, детектив, приключения, DVDRip] торрент без регистрации

 
Статистика раздачи
Размер:  747 MB   |    Скачан:  118 раз
Сидов:  1  [  0 KB/s  ]  
 
Автор Сообщение

Marsianka

[] 

Информация о фильме
Название: Тень «Полярной звезды»
Оригинальное название: The Shadow in the North
Год выхода: 2007
Жанр: триллер, детектив, приключения
Режиссер: Джон Александр / John Alexander
В ролях: Билли Пайпер /Billie Piper/, Джей Джей Филд /JJ Feild/, Джулиан Райнд-Татт /Julian Rhind-Tutt/, Джон Стэндинг /John Standing/, Линдси Маршал /Lyndsey Marshal/, Донья Кролл /DoЎa Croll/, Мэтт Смит /Matt Smith/, Джаред Харрис /Jared Harris/, Дэвид Хэрвуд /David Harewood/, Хейли Этвелл /Hayley Atwell/

О фильме:
Тень зла Можно ли вызвать ее на спиритическом сеансе или запечатлеть на фотоснимке?

В мастерской «Гарланд и Локхард» всегда оживленно Фред экспериментирует с новыми камерами и техникой съемок. Повзрослевшая Салли открывает свое дело. Теперь она консультант по финансовым вопросам. Джим пишет пьесы и работает в театре.

Но однажды Салли и ее друзья поневоле становятся детективами. Случайные, казалось бы, события, произошедшие с каждым из них, оказываются звеньями одной цепи. И за всеми стоит владелец компаний «Полярная звезда&raquo. Беллман всемогущ. Он торгует смертью и создает чудовищные «паровые ружья&raquo. С каждым шагом Салли, Джима и Фреда все сильнее затягивает в зловещую тень «Полярной звезды&raquo.



Страна: Великобритания
Студия: British Broadcasting Corporation (BBC)
Продолжительность: 01:34:08
Перевод: Профессиональный (многоголосый, закадровый)

Файл
Кодек: XviD / MP3
Качество: DVDRip
Видео: XviD, 704x400 (16:9), 25.000 fps, 974 Kbps (0.138 bit/pixel)
Звук: MP3, 48.0 KHz, 2 ch, 128 Kbps, CBR (Russian)
General
Complete name : E:The.Shadow.in.the.North_745_[Rutor.org].avi
Format : AVI
Format/Info : Audio Video Interleave
File size : 747 MiB
Duration : 1h 34mn
Overall bit rate : 1 110 Kbps
Writing application : VirtualDubMod 1.5.4.1 (build 2178/release)
Writing library : VirtualDubMod build 2178/release

Video
ID : 0
Format : MPEG-4 Visual
Format profile : Advanced Simple@L5
Format settings, BVOP : 1
Format settings, QPel : No
Format settings, GMC : No warppoints
Format settings, Matrix : Custom
Codec ID : XVID
Codec ID/Hint : XviD
Duration : 1h 34mn
Bit rate : 974 Kbps
Width : 704 pixels
Height : 400 pixels
Display aspect ratio : 16:9
Frame rate : 25.000 fps
Color space : YUV
Chroma subsampling : 4:2:0
Bit depth : 8 bits
Scan type : Progressive
Compression mode : Lossy
Bits/(Pixel*Frame) : 0.138
Stream size : 656 MiB (88%)
Writing library : XviD 64

Audio
ID : 1
Format : MPEG Audio
Format version : Version 1
Format profile : Layer 3
Mode : Joint stereo
Mode extension : MS Stereo
Codec ID : 55
Codec ID/Hint : MP3
Duration : 1h 34mn
Bit rate mode : Constant
Bit rate : 128 Kbps
Channel(s) : 2 channels
Sampling rate : 48.0 KHz
Compression mode : Lossy
Stream size : 86.2 MiB (12%)
Alignment : Aligned on interleaves
Interleave, duration : 80 ms (2.00 video frames)
Interleave, preload duration : 504 ms
Writing library : LAME3.99.1
Language : Russian



Скачать Тень.«Полярной.звезды».The.Shadow.in.the.North.(Джон.Александр.John.Alexander).[2007.триллер.детектив.приключения.DVDRip].torrent без регистрации
Золото ЗОЛОТАЯ РАЗДАЧА! СКАЧАННОЕ НЕ ЗАСЧИТЫВАЕТСЯ! Золото
Дата: Зарегистрирован   [ Тип: внутренний ] Как тут cкачать?
MAGNET ссылка
MAGNET ссылка


Скачать .torrent

15 KB

Статус: проверено DHT
Скачан: торрент - 118 раз, раздача полностью - 13 раз
Размер: 747 MB
Оценка:  - (Голосов: 0)
Поблагодарили: 2
Поделиться ссылкой на эту раздачу с друзьями:
В контактеFacebookОдноклассникиTwitterLivejournalМой МирLiveinternet
 

 
Показать сообщения:    


Вы не можете начинать темы
Вы не можете отвечать на сообщения
Вы не можете редактировать свои сообщения
Вы не можете удалять свои сообщения
Вы не можете голосовать в опросах
Вы не можете прикреплять файлы к сообщениям
Вы можете скачивать файлы