Loading...
Error

Скачать Быть человеком / Being Human (Билл Форсайт / Bill Forsyth) [1994, фэнтези, драма, комедия, DVDRip] торрент без регистрации

 
Статистика раздачи
Размер:  2,18 GB   |    Скачан:  127 раз
Сидов:  1  [  0 KB/s  ]  
 
Автор Сообщение

Marsianka

[] 

Название: Быть человеком
Оригинальное название: Being Human
Жанр: фэнтези, драма, комедия
Год выпуска: 1994
Режиссер: Билл Форсайт / Bill Forsyth
В ролях: Робин Вильямс / Robin Williams, Джон Туртурро / John Turturro, Анна Галиена / Anna Galiena, Винсент Филлип Д'Онофрио / Vincent D'Onofrio, Эктор Элисондо / Hector Elizondo, Роберт Карлайл / Robert Carlyle, Билл Найи /Bill Nighy/, Уильям Х.Мэйси / William H. Macy

Описание:

Пять коротких историй, случившихся в разное время: в каменном веке, в Римской империи, в средневековой Европе, в XVI ом столетии и в наши дни. И что бы ни происходило с главным героем перед ним всегда вставал вопрос: что есть, где укрыться, где найти пару сапог



Страна: Великобритания, Япония
Продолжительность: 2:01:54
Перевод: Профессиональный (дублированный) Варус Видео
Перевод (2): Авторский (одноголосый закадровый) Леонид Володарский
Cубтитры: нет

Файл
Качество видео: DVDRip
Формат видео: AVI
Видео: 720x400 (1.80:1), 23.976 fps, DivX Codec 6.8.3 ~2167 kbps avg, 0.31 bit/pixel
Аудио: 48 kHz, AC3 Dolby Digital, 2/0 (L,R) ch, ~192 kbps
Аудио 2: 48 kHz, AC3 Dolby Digital, 2/0 (L,R) ch, ~192 kbps


Complete name : Being_Human_Varus_Volodarsky.avi
Format : AVI
Format/Info : Audio Video Interleave
Format profile : OpenDML
File size : 2.18 GiB
Duration : 2h 1mn
Overall bit rate : 2 558 Kbps
Writing application : VirtualDubMod 1.5.10.2 (build 2540/release)
Writing library : VirtualDubMod build 2540/release
Video
ID : 0
Format : MPEG-4 Visual
Format settings, BVOP : Yes
Format settings, QPel : No
Format settings, GMC : No warppoints
Format settings, Matrix : Default (H.263)
Codec ID : DX50
Codec ID/Hint : DivX 5
Duration : 2h 1mn
Bit rate : 2 156 Kbps
Width : 720 pixels
Height : 400 pixels
Display aspect ratio : 16:9
Frame rate : 23.976 fps
Resolution : 8 bits
Colorimetry : 4:2:0
Scan type : Progressive
Bits/(Pixel*Frame) : 0.312
Stream size : 1.84 GiB (84%)
Writing library : DivX 6.8.3-6.8.4 (UTC 2008-06-07)
Audio #1
ID : 1
Format : AC-3
Format/Info : Audio Coding 3
Codec ID : 2000
Duration : 2h 1mn
Bit rate mode : Constant
Bit rate : 192 Kbps
Channel(s) : 2 channels
Channel positions : L R
Sampling rate : 48.0 KHz
Stream size : 167 MiB (8%)
Alignment : Aligned on interleaves
Interleave, duration : 42 ms (1.00 video frame)
Interleave, preload duration : 512 ms
Audio #2
ID : 2
Format : AC-3
Format/Info : Audio Coding 3
Codec ID : 2000
Duration : 2h 1mn
Bit rate mode : Constant
Bit rate : 192 Kbps
Channel(s) : 2 channels
Channel positions : L R
Sampling rate : 48.0 KHz
Stream size : 167 MiB (8%)
Alignment : Split accross interleaves
Interleave, duration : 42 ms (1.00 video frame)
Interleave, preload duration : 500 ms
Спасибо большое ShevChenCo!



Скачать Быть.человеком.Being.Human.(Билл.Форсайт.Bill.Forsyth).[1994.фэнтези.драма.комедия.DVDRip].torrent без регистрации
Золото ЗОЛОТАЯ РАЗДАЧА! СКАЧАННОЕ НЕ ЗАСЧИТЫВАЕТСЯ! Золото
Дата: Зарегистрирован   [ Тип: внутренний ] Как тут cкачать?
MAGNET ссылка
MAGNET ссылка


Скачать .torrent

11 KB

Статус: проверено DHT
Скачан: торрент - 127 раз, раздача полностью - 4 раз
Размер: 2,18 GB
Оценка:  - (Голосов: 0)
Поблагодарили: 0
Поделиться ссылкой на эту раздачу с друзьями:
В контактеFacebookОдноклассникиTwitterLivejournalМой МирLiveinternet
 

 
Показать сообщения:    


Вы не можете начинать темы
Вы не можете отвечать на сообщения
Вы не можете редактировать свои сообщения
Вы не можете удалять свои сообщения
Вы не можете голосовать в опросах
Вы не можете прикреплять файлы к сообщениям
Вы можете скачивать файлы