Loading...
Error

Скачать Таксидермия / Taxidermia (Георги Палфи) [2006 Драма, Комедия, Ужасы, Артхаус DVDrip] торрент без регистрации

 
Статистика раздачи
Размер:  1,22 GB   |    Скачан:  202 раза
Сидов:  1  [  0 KB/s  ]  
 
Автор Сообщение

matata

[] 

Таксидермия [Георги Палфи] [2006] [Драма / Комедия / Ужасы / Артхаус]

Информация о фильме

Название: Таксидермия
Оригинальное название: Taxidermia
Год выхода: 2006
Жанр: Драма / Комедия / Ужасы / Артхаус
Режиссер: Георги Палфи /Gyorgy Palfi/
В ролях: Эрвин Ледер /Erwin Leder/ Анита Тот /Anita Toth/ Марк Бишофф /Marc Bischoff/ Габор Мате /Gabor Mate/ Иштван Хунядкурты /stvan Hunyadkurthy/ и другие...

Описание: История трех поколений мужчин начинается с изломанной судьбы лейтенанта Второй Мировой войны, продолжается рассказом о его толстом сыне Калмане. Калман соревнуется на Олимпийских играх едоков, влюбляется в такую же тучную Гизелль. И вскоре у них рождается крошечный мальчик, который растет, чтобы стать тихим набивщиком чучел.

Внимание! Присутствуют нецензурные слова. 16 +

Страна: Франция, Венгрия, Австрия
Выпущено: Amour Fou Filmproduktion
Продолжительность: 01:30:32
Перевод: Профессиональный одноголосый /Антон Алексеев/

Качество: DVDRip
Видео: DivX 5 720x304 25.00fps 1563Kbps
Аудио 1: MPEG Audio Layer 3 48000Hz stereo 128Kbps /Русский/
Аудио 2: Dolby AC3 48000Hz stereo 224Kbps /Венгерский/
Субтитры: русские

Скачать сэмпл /11Мб/00:01:28/


General
Taxid (2006)Taxidermia (2006).rus.hu.avi
Format : AVI
Format/Info : Audio Video Interleave
File size : 1.22 GiB
Duration : 1h 30mn
Overall bit rate : 1 930 Kbps
Movie name : Taxidermia (2006)
Writing application : VirtualDubMod 1.5.10.2 (build 2540/release)

Video
ID : 0
Format : MPEG-4 Visual
Format settings, BVOP : Yes
Format settings, QPel : No
Format settings, GMC : No warppoints
Format settings, Matrix : Default (H.263)
Muxing mode : Packed bitstream
Codec ID : DX50
Codec ID/Hint : DivX 5
Duration : 1h 30mn
Bit rate : 1 564 Kbps
Width : 720 pixels
Height : 304 pixels
Display aspect ratio : 2.35:1
Frame rate : 25.000 fps
Resolution : 24 bits
Colorimetry : 4:2:0
Scan type : Progressive
Bits/(Pixel*Frame) : 0.286
Stream size : 1 013 MiB (81%)
Writing library : DivX 6.8.5 (UTC 2009-08-20)

Audio #1
ID : 1
Format : MPEG Audio
Format version : Version 1
Format profile : Layer 3
Format_Settings_Mode : Joint stereo
Codec ID : 55
Codec ID/Hint : MP3
Duration : 1h 30mn
Bit rate mode : Constant
Bit rate : 128 Kbps
Channel(s) : 2 channels
Sampling rate : 48.0 KHz
Resolution : 16 bits
Stream size : 82.9 MiB (7%)
Alignment : Aligned on interleaves
Interleave, duration : 40 ms (1.00 video frame)
Interleave, preload duration : 504 ms

Audio #2
ID : 2
Format : AC-3
Format/Info : Audio Coding 3
Codec ID : 2000
Duration : 1h 30mn
Bit rate mode : Constant
Bit rate : 224 Kbps
Channel(s) : 2 channels
Channel positions : L R
Sampling rate : 48.0 KHz
Stream size : 145 MiB (12%)
Alignment : Split accross interleaves
Interleave, duration : 40 ms (1.00 video frame)
Interleave, preload duration : 500 ms









Скачать Таксидермия.Taxidermia.(Георги.Палфи).[2006.Драма.Комедия.Ужасы.Артхаус.DVDrip].torrent без регистрации
Золото ЗОЛОТАЯ РАЗДАЧА! СКАЧАННОЕ НЕ ЗАСЧИТЫВАЕТСЯ! Золото
Дата: Зарегистрирован   [ Тип: внутренний ] Как тут cкачать?
MAGNET ссылка
MAGNET ссылка


Скачать .torrent

13 KB

Статус: проверено DHT
Скачан: торрент - 202 раз, раздача полностью - 74 раз
Размер: 1,22 GB
Оценка:  - (Голосов: 0)
Поблагодарили: 1
Поделиться ссылкой на эту раздачу с друзьями:
В контактеFacebookОдноклассникиTwitterLivejournalМой МирLiveinternet
 

 

maxcross

[] 

в описаниие параметров видео 720x304, а расмер скринов 720 x 320 пикселей, перезалейте скрины, решите проблему, а пока статус "недооформлено"!
P.S. спс за зардачу, как кино стоящее?!
 

matata

[] 

исправил
 
Показать сообщения:    


Вы не можете начинать темы
Вы не можете отвечать на сообщения
Вы не можете редактировать свои сообщения
Вы не можете удалять свои сообщения
Вы не можете голосовать в опросах
Вы не можете прикреплять файлы к сообщениям
Вы можете скачивать файлы