Loading...
Error

Скачать Сью / Sue (Амос Коллек) [1997 Драма, Артхаус DVDRip] торрент без регистрации

 
Статистика раздачи
Размер:  780 MB   |    Скачан:  206 раз
Сидов:  1  [  0 KB/s  ]  
 
Автор Сообщение

matata

[] 

Сью / Sue 1997

Информация о фильме:

Название: Сью
Oригинальное название: Sue / Sue Lost in Manhattan
Год выхода: 1997
Жанр: Драма, Артхаус

Режиссер: Амос Коллек /Amos Kollek/
Сценарист: Амос Коллек /Amos Kollek/
Оператор: Эд Талавера /Ed Talavera/
Композитор: Чико Фриман /Chico Freeman/

В фильме снимались:
Анна Левайн-Томпсон /Anna Levine Thomson/
Мэттью Пауэрс /Matthew Powers/
Тэхни Уэлч /Tahnee Welch/
Трэйси Эллис Росс /Tracee Ellis Ross/
Джон Вентимилья /John Ventimiglia/
Эдоардо Баллерини /Edoardo Ballerini/
Остин Пендлтон /Austin Pendleton/
Майкл Ворф /Michael Worth/
Элис Лью /Alice Liu/
и другие...

Описание: Героиня фильма Сью — молодая, привлекательная и хорошо образованная женщина, оставшаяся без работы. Сью не по
карману платить за квартиру, она пьёт, мучается от бессонницы и страдает от невыносимого, всепоглощающего одиночества в огромном, безразличном Нью-Йорке.
Женщина слишком нерешительна и замкнута, чтобы принять чью-то дружбу. Единственный, отчаянный способ, при помощи которого она может общаться с окружающими её миром — секс. Мимолётные связи со случайными мужчинами — последнее напоминание о том, что она все ещё существует. И вот однажды Сью встречает человека, у которого есть шанс изменить её жизнь…

Из серии "Кино без границ". О человеческом одиночестве. Сью Калиновски (Томсон) - женщина не первой молодости, но еще очень красивая и сексуальная, гордая, ранимая, с обнаженными нервами, и в то же время добрая, сдержанная. Были у нее лучшие времена. Слишком многое уже позади. По ее собственным словам, она сначала не хотела семьи, а теперь уже вроде никому и не нужна. Живет одна, друзей нет, работы нет и найти ее она не может, с квартиры гонят за неуплату. Она много курит, может выпить, в ее жизни много мужчин. Но не от неразборчивости - в чужих объятиях она пытается забыть о жутком одиночестве. Сью встречает Бена, симпатичного мужчину (Пауэрс), которому она очень нравится. У него серьезные намерения, но она уже не может поверить в удачу и счастье, и ведет себя соответственно, во вред себе. И только-только начинает что-то налаживаться, как ему предлагают (на месяц) поездку в Индию, а ее все-таки выставляют с квартиры. Одна, в холодном парке. Заснула ли Сью, откинув голову на скамейку?..

Эймос Коллек написал очень умный, точный, выверенный сценарий о женской судьбе и снял фильм так, как будто сам пережил и выстрадал каждый его кадр. А игра Анны Томсон делает его по-настоящему выдающимся. (Иванов М.)

Страна: США
Выпущено: AMKO Productions Inc.
Продолжительность: 01:27:34
Перевод: Профессиональный, двухголосый /закадровый/
Субтитры: Нет




Format : AVI
Format/Info : Audio Video Interleave
File size : 780 MiB
Duration : 1h 27mn
Overall bit rate : 1 246 Kbps
Movie name : Sue (1997)
Writing application : VirtualDubModRus 1.5.10.2 (build 2540/release)

Video
ID : 0
Format : MPEG-4 Visual
Format settings, BVOP : Yes
Format settings, QPel : No
Format settings, GMC : No warppoints
Format settings, Matrix : Default (H.263)
Codec ID : DX50
Codec ID/Hint : DivX 5
Duration : 1h 27mn
Bit rate : 1 007 Kbps
Width : 704 pixels
Height : 384 pixels
Display aspect ratio : 16:9
Frame rate : 25.000 fps
Color space : YUV
Chroma subsampling : 4:2:0
Bit depth : 8 bits
Scan type : Progressive
Bits/(Pixel*Frame) : 0.149
Stream size : 631 MiB (81%)
Writing library : DivX 5.0.2 (UTC 2002-05-16)

Audio #1
ID : 1
Format : MPEG Audio
Format version : Version 1
Format profile : Layer 3
Codec ID : 55
Codec ID/Hint : MP3
Duration : 1h 27mn
Bit rate mode : Constant
Bit rate : 128 Kbps
Channel(s) : 2 channels
Sampling rate : 44.1 KHz
Stream size : 80.2 MiB (10%)
Alignment : Split accross interleaves
Interleave, duration : 40 ms (1.00 video frame)
Interleave, preload duration : 500 ms

Audio #2
ID : 2
Format : MPEG Audio
Format version : Version 1
Format profile : Layer 3
Mode : Joint stereo
Mode extension : MS Stereo
Codec ID : 55
Codec ID/Hint : MP3
Duration : 1h 27mn
Bit rate mode : Constant
Bit rate : 96.0 Kbps
Channel(s) : 2 channels
Sampling rate : 48.0 KHz
Stream size : 60.1 MiB (8%)
Alignment : Split accross interleaves
Interleave, duration : 40 ms (1.00 video frame)
Interleave, preload duration : 500 ms


Качество: DVDRip
Формат: AVI
Видео кодек: DivX
Аудио кодек: MP3
Видео: 704x384 (1.83:1), 25 fps, DivX Codec 5.02 build 487 ~1006 kbps avg, 0.15 bit/pixel
Аудио 1: 44.100 kHz, MPEG Layer 3, 2 ch, ~128.00 kbps avg /двухголосый/
Аудио 2: 48 kHz, MPEG Layer 3, 2 ch, ~96.00 kbps avg /оригинальный/




Скачать Сью.Sue.(Амос.Коллек).[1997.Драма.Артхаус.DVDRip].torrent без регистрации
Золото ЗОЛОТАЯ РАЗДАЧА! СКАЧАННОЕ НЕ ЗАСЧИТЫВАЕТСЯ! Золото
Дата: Зарегистрирован   [ Тип: внутренний ] Как тут cкачать?
MAGNET ссылка
MAGNET ссылка


Скачать .torrent

16 KB

Статус: проверено DHT
Скачан: торрент - 206 раз, раздача полностью - 143 раз
Размер: 780 MB
Оценка:  - (Голосов: 0)
Поблагодарили: 1
Поделиться ссылкой на эту раздачу с друзьями:
В контактеFacebookОдноклассникиTwitterLivejournalМой МирLiveinternet
 

 
Показать сообщения:    


Вы не можете начинать темы
Вы не можете отвечать на сообщения
Вы не можете редактировать свои сообщения
Вы не можете удалять свои сообщения
Вы не можете голосовать в опросах
Вы не можете прикреплять файлы к сообщениям
Вы можете скачивать файлы