Loading...
Error

Скачать Маленький большой человек / Little Big Man (Артур Пенн) [1970, драма, приключения, вестерн, военный, история, BDRip] [AVC] [PowerTracker] торрент без регистрации

 
Статистика раздачи
Размер:  2,18 GB   |    Скачан:  131 раз
Сидов:  1  [  0 KB/s  ]  
 
Автор Сообщение

Marsianka

[] 

Маленький большой человек / Little Big Man (1970) BDRip-AVC от PowerTracker

Жанр: драма, приключения, вестерн, военный, история
Страна: США
Режиссер: Артур Пенн
В ролях: Дастин Хоффман, Фэй Данауэй, Вождь Дэн Джордж, Мартин Болсам, Ричард Маллиган, Джефф Кори, Эме Экклес, Келли Джин Питерс, Кэрол Андроски, Роберт Литтл Стар

Сюжет фильма: 121 летний Джек Крэбб (Дастин Хоффман) рассказывает любопытному историку о своей жизни. Юному Джеку и его старшей сестре Каролине удается выжить после расправы над их обозом, учиненной племенем пауни. Их находит шайеннский воин и отвозит в свою деревню. Ночью Каролина убегает оттуда, однако Джек остается и вырастает под покровительством вождя Старые Шкуры Вигвама (вождь Дэн Джордж). Жизнь его складывается идеально, хотя он и наживает себе врага в виде ровесника по прозвищу Молодой Медведь. За свой маленький рост и мужественность Джек получает прозвище Маленький Большой Человек. Во время одного сражения Джек оказывается в плену у американской кавалерии и тем самым возвращается к белым людям. Его берет под свое попечительство преподобный Пендрейк и его жена Луиза (Фэй Данауэй). Вскоре Джек увлекается Луизой, однако он никак не может связать её благочестие и набожность с одной стороны и её похотливость с другой, и покидает их дом.

Мировая премьера: 14 декабря 1970



Продолжительность: 02:19:24
Качество видео: BDRip-AVC
Видео: кодек: x264, размер кадра: 1022х432, битрейт: 1473 кб/с, bit/pixel: 0.139
Аудио #1: язык: Русский , перевод: многоголосый закадровый [R5], кодек: AC3 5.1, битрейт: 384.00 кб/с
Аудио #2: язык: Русский , перевод: одноголосный закадровый (А. Михалёв), кодек: AC3 2.0, битрейт: 192.00 кб/с
Аудио #3: язык: Английский , перевод: оригинал, кодек: AC3 2.0, битрейт: 192.00 кб/с

&
Полное имя : D:РоздачиLittle Big Man.1970.HQBDRip-AVC.PT.mkv
Формат : Matroska
Размер файла : 2,18 Гбайт
Продолжительность : 2 ч. 19 м.
Общий поток : 2243 Кбит/сек
Название фильма : Маленький большой человек / Little Big Man (1970) BDRip-AVC rip by Rulya74
Дата кодирования : UTC 2011-11-23 16:57:16
Программа кодирования : mkvmerge v4.8.0 ('I Got The...') сборка от May 31 2011 13:11:21
Библиотека кодирования : libebml v1.2.0 + libmatroska v1.1.0

Видео
Идентификатор : 1
Формат : AVC
Формат/Информация : Advanced Video Codec
Профиль формата : High@L4.1
Параметр CABAC формата : Да
Параметр ReFrames формата : 14 кадров
Идентификатор кодека : V_MPEG4/ISO/AVC
Продолжительность : 2 ч. 19 м.
Битрейт : 1473 Кбит/сек
Ширина : 1022 пикс.
Высота : 432 пикс.
Соотношение сторон : 2,35:1
Частота кадров : 23,976 кадр/сек
Цветовое пространство : YUV
Подвыборка цветности : 4:2:0
Битовая глубина : 8 бит
Тип развёртки : Прогрессивная
Бит/(Пиксели*Кадры) : 0.139
Размер потока : 1,39 Гбайт (64%)
Библиотека кодирования : x264 core 116 r2074 2641b9e
Настройки программы : cabac=1 / ref=14 / deblock=1:-3:-2 / analyse=0x3:0x113 / me=umh / subme=10 / psy=1 / psy_rd=1.00:0.00 / mixed_ref=1 / me_range=48 / chroma_me=1 / trellis=2 / 8x8dct=1 / cqm=0 / deadzone=21,11 / fast_pskip=1 / chroma_qp_offset=-2 / threads=3 / sliced_threads=0 / nr=0 / decimate=1 / interlaced=0 / bluray_compat=0 / constrained_intra=0 / bframes=9 / b_pyramid=2 / b_adapt=1 / b_bias=0 / direct=1 / weightb=1 / open_gop=0 / weightp=2 / keyint=250 / keyint_min=23 / scenecut=40 / intra_refresh=0 / rc_lookahead=40 / rc=2pass / mbtree=1 / bitrate=1473 / ratetol=1.0 / qcomp=0.60 / qpmin=10 / qpmax=51 / qpstep=4 / cplxblur=20.0 / qblur=0.5 / ip_ratio=1.40 / aq=1:1.00

Аудио #1
Идентификатор : 2
Формат : AC-3
Формат/Информация : Audio Coding 3
Расширение режима : CM (complete main)
Идентификатор кодека : A_AC3
Продолжительность : 2 ч. 19 м.
Вид битрейта : Постоянный
Битрейт : 384 Кбит/сек
Каналы : 6 каналов
Расположение каналов : Front: L C R, Side: L R, LFE
Частота : 48,0 КГц
Битовая глубина : 16 бит
Метод сжатия : С потерями
Размер потока : 383 Мбайт (17%)
Заголовок : MVO [R5]
Язык : Russian

Аудио #2
Идентификатор : 3
Формат : AC-3
Формат/Информация : Audio Coding 3
Расширение режима : CM (complete main)
Идентификатор кодека : A_AC3
Продолжительность : 2 ч. 19 м.
Вид битрейта : Постоянный
Битрейт : 192 Кбит/сек
Каналы : 2 канала
Расположение каналов : Front: L R
Частота : 48,0 КГц
Битовая глубина : 16 бит
Метод сжатия : С потерями
Размер потока : 191 Мбайт (9%)
Заголовок : AVO [А. Михалев]
Язык : Russian

Аудио #3
Идентификатор : 4
Формат : AC-3
Формат/Информация : Audio Coding 3
Расширение режима : CM (complete main)
Идентификатор кодека : A_AC3
Продолжительность : 2 ч. 19 м.
Вид битрейта : Постоянный
Битрейт : 192 Кбит/сек
Каналы : 2 канала
Расположение каналов : Front: L R
Частота : 48,0 КГц
Битовая глубина : 16 бит
Метод сжатия : С потерями
Размер потока : 191 Мбайт (9%)
Заголовок : Original
Язык : English



Скачать Маленький.большой.человек.Little.Big.Man.(Артур.Пенн).[1970.драма.приключения.вестерн.военный.история.BDRip].[AVC].[PowerTracker].torrent без регистрации
Золото ЗОЛОТАЯ РАЗДАЧА! СКАЧАННОЕ НЕ ЗАСЧИТЫВАЕТСЯ! Золото
Дата: Зарегистрирован   [ Тип: внутренний ] Как тут cкачать?
MAGNET ссылка
MAGNET ссылка


Скачать .torrent

11 KB

Статус: проверено DHT
Скачан: торрент - 131 раз, раздача полностью - 54 раз
Размер: 2,18 GB
Оценка:  - (Голосов: 0)
Поблагодарили: 1
Поделиться ссылкой на эту раздачу с друзьями:
В контактеFacebookОдноклассникиTwitterLivejournalМой МирLiveinternet
 

 
Показать сообщения:    


Вы не можете начинать темы
Вы не можете отвечать на сообщения
Вы не можете редактировать свои сообщения
Вы не можете удалять свои сообщения
Вы не можете голосовать в опросах
Вы не можете прикреплять файлы к сообщениям
Вы можете скачивать файлы