Loading...
Error

Скачать Кудряшка Сью / Curly Sue (Джон Хьюз) [1991, Комедия, HDTVRip] [Dub] (Варус Видео) + [DVO] (НТВ) торрент без регистрации

 
Статистика раздачи
Размер:  1,46 GB   |    Скачан:  223 раза
Сидов:  1  [  0 KB/s  ]  
 
Автор Сообщение

leon030982

[] 


Кудряшка Сью / Curly Sue



Год выпуска: 1991
Выпущено: США
Жанр: Комедия
Продолжительность: 01:41:00
Перевод #1: Профессиональный (дублированный) [Варус Видео]
Перевод #2: Профессиональный (двухголосый, закадровый) НТВ
Cубтитры: нет

Режиссер: Джон Хьюз

В ролях: Джеймс Белуши, Элисан Портер, Келли Линч, Джон Гец

Описание: Билл Дэнсер, которого девятилетняя девочка по имени Кудряшка Сью считает своим папой, относится к малышке так, как это может делать самый лучший отец. У него ничего нет, кроме котомки за плечами, в его карманах гуляет ветер, но он стремится одеть и накормить малышку Сью и идёт для этого на мелкие аферы. Он говорит: "Мы это делаем, не нарушая законы. Точнее, не нарушая хорошие законы...". И вот однажды, в удачной попытке инсценировать наезд автомобилем на Билла, незадачливая парочка знакомится с адвокатом Грэй Эллисон, незамужней и преуспевающей..


Качество: HDTVRip
Формат: AVI
Видео кодек: XviD
Аудио кодек: AC3
Видео: XviD, 720x400 (16:9), 23.976 fps, 1645 kbps avg, Бит/(Пиксели*Кадры) : 0.238
Аудио #1: AC3, 48.0 khz, 2 ch, 192 kbps[Варус Видео]
Аудио #2: AC3, 48.0 khz, 2 ch, 192 kbps[НТВ]

Общее
Полное имя : F:\Кудряшка Сью.avi
Формат : AVI
Формат/Информация : Audio Video Interleave
Размер файла : 1,46 Гбайт
Продолжительность : 1 ч. 42 м.
Общий поток : 2043 Кбит/сек
Программа кодирования : VirtualDubMod 1.5.10.3 (build 2550/release)
Библиотека кодирования : VirtualDubMod build 2550/release

Видео
Идентификатор : 0
Формат : MPEG-4 Visual
Профиль формата : Advanced Simple@L5
Параметр BVOP формата : 1
Параметр QPel формата : Нет
Параметр GMC формата : Без точки перехода
Параметр матрицы формата : Выборочная
Идентификатор кодека : XVID
Идентификатор кодека/Подсказка : XviD
Продолжительность : 1 ч. 42 м.
Битрейт : 1645 Кбит/сек
Ширина : 720 пикселей
Высота : 400 пикселей
Соотношение сторон : 16:9
Частота кадров : 23,976 кадра/сек
Цветовое пространство : YUV
Субдискретизация насыщенности : 4:2:0
Битовая глубина : 8 бит
Тип развёртки : Прогрессивная
Метод сжатия : С потерями
Бит/(Пиксели*Кадры) : 0.238
Размер потока : 1,17 Гбайт (81%)
Библиотека кодирования : XviD 1.2.1 (UTC 2008-12-04)

Аудио #1
Идентификатор : 1
Формат : AC-3
Формат/Информация : Audio Coding 3
Расширение режима : CM (complete main)
Параметр Endianness формата : Big
Идентификатор кодека : 2000
Продолжительность : 1 ч. 42 м.
Вид битрейта : Постоянный
Битрейт : 192 Кбит/сек
Каналы : 2 канала
Расположение каналов : Front: L R
Частота : 48,0 КГц
Битовая глубина : 16 бит
Метод сжатия : С потерями
Размер потока : 140 Мбайт (9%)
Выравнивание : Разделение по промежуткам
Продолжительность промежутка : 42 мс. (1,00 видеокадр)
Время предзагрузки промежутка : 500 мс.

Аудио #2
Идентификатор : 2
Формат : AC-3
Формат/Информация : Audio Coding 3
Расширение режима : CM (complete main)
Параметр Endianness формата : Big
Идентификатор кодека : 2000
Продолжительность : 1 ч. 42 м.
Вид битрейта : Постоянный
Битрейт : 192 Кбит/сек
Каналы : 2 канала
Расположение каналов : Front: L R
Частота : 48,0 КГц
Битовая глубина : 16 бит
Метод сжатия : С потерями
Размер потока : 140 Мбайт (9%)
Выравнивание : Разделение по промежуткам
Продолжительность промежутка : 42 мс. (1,00 видеокадр)
Время предзагрузки промежутка : 500 мс.


Заменено на лучшее качество!



Скачать Кудряшка.Сью.Curly.Sue.(Джон.Хьюз).[1991.Комедия.HDTVRip].[Dub].(Варус.Видео).+.[DVO].(НТВ).torrent без регистрации
Золото ЗОЛОТАЯ РАЗДАЧА! СКАЧАННОЕ НЕ ЗАСЧИТЫВАЕТСЯ! Золото
Дата: Зарегистрирован   [ Тип: внутренний ] Как тут cкачать?
MAGNET ссылка
MAGNET ссылка


Скачать .torrent

15 KB

Статус: проверено DHT
Скачан: торрент - 223 раз, раздача полностью - 28 раз
Размер: 1,46 GB
Оценка:  5 (Голосов: 2)
Поблагодарили: 2
Поделиться ссылкой на эту раздачу с друзьями:
В контактеFacebookОдноклассникиTwitterLivejournalМой МирLiveinternet
 

 

leon030982

[] 

Цитата:

Заменено на лучшее качество ab
 
Показать сообщения:    


Вы не можете начинать темы
Вы не можете отвечать на сообщения
Вы не можете редактировать свои сообщения
Вы не можете удалять свои сообщения
Вы не можете голосовать в опросах
Вы не можете прикреплять файлы к сообщениям
Вы можете скачивать файлы