Loading...
Error

Скачать Вестсайдская история / West Side Story (Джером Роббинс / Jerome Robbins, Роберт Уайз / Robert Wise) [1961, мюзикл, драма, мелодрама, криминал, HDTVRip] торрент без регистрации

 
Статистика раздачи
Размер:  1,46 GB   |    Скачан:  128 раз
Сидов:  1  [  0 KB/s  ]  
 
Автор Сообщение

Marsianka

[] 

Информация о фильме
Название: Вестсайдская история
Оригинальное название: West Side Story
Год выхода: 1961
Жанр: мюзикл, драма, мелодрама, криминал
Режиссер: Джером Роббинс / Jerome Robbins, Роберт Уайз / Robert Wise
В ролях: Нэтали Вуд /Natalie Wood/, Ричард Беймер /Richard Beymer/, Расс Тэмблин /Russ Tamblyn/, Рита Морено /Rita Moreno/, Джордж Чакирис /George Chakiris/, Саймон Оуклэнд /Simon Oakland/, Нед Гласс /Ned Glass/, Уильям Брэмли /William Bramley/, Такер Смит /Tucker Smith/, Тони Морденте /Tony Mordente/, Дэвид Уинтерс /David Winters/, Элиот Фелд /Eliot Feld/, Берт Майклс /Bert Michaels/, Дэвид Бин /David Bean/

О фильме:
Сюжет построен на бессмертной истории Ромео и Джульетты, развернутой на новый лад. На улицах Манхэттена ведут беспощадную войну за жизненное пространство две уличных банды, Джеты и Акулы. Тони член банды Джетов и лучший друг главаря Риффа.

Смуглянка Мария сестра предводителя пуэрториканцев Акул. Тони и Мария влюбляются друг в друга вопреки ненависти друзей и родственников, и их любовь заканчивается трагически



Страна: США
Студия: The Mirisch Corporation, Seven Arts Productions, Beta Productions
Продолжительность: 02:31:33
Перевод: Профессиональный (многоголосый, закадровый)

Файл
Кодек: XviD / AC3
Качество: HDTVRip
Видео: XviD, 704x320 (2.2:1), 23.976 fps, 1 174 Kbps (0.217 bit/pixel)
Звук: AC-3, 48.0 KHz, 2 ch, 192 Kbps, CBR
General
Complete name : E:West.Side.Story_1400_[Rutor.org].avi
Format : AVI
Format/Info : Audio Video Interleave
File size : 1.46 GiB
Duration : 2h 31mn
Overall bit rate : 1 376 Kbps
Movie name : Вестсайдская история / West Side Story
Writing application : VirtualDubMod 1.5.10.2 (build 2540/release)

Video
ID : 0
Format : MPEG-4 Visual
Format profile : Advanced Simple@L5
Format settings, BVOP : 1
Format settings, QPel : No
Format settings, GMC : No warppoints
Format settings, Matrix : Custom
Codec ID : XVID
Codec ID/Hint : XviD
Duration : 2h 31mn
Bit rate : 1 174 Kbps
Width : 704 pixels
Height : 320 pixels
Display aspect ratio : 2.2:1
Frame rate : 23.976 fps
Color space : YUV
Chroma subsampling : 4:2:0
Bit depth : 8 bits
Scan type : Progressive
Compression mode : Lossy
Bits/(Pixel*Frame) : 0.217
Stream size : 1.24 GiB (85%)
Writing library : XviD 1.2.1 (UTC 2008-12-04)

Audio
ID : 1
Format : AC-3
Format/Info : Audio Coding 3
Mode extension : CM (complete main)
Codec ID : 2000
Duration : 2h 31mn
Bit rate mode : Constant
Bit rate : 192 Kbps
Channel(s) : 2 channels
Channel positions : Front: L R
Sampling rate : 48.0 KHz
Bit depth : 16 bits
Compression mode : Lossy
Stream size : 208 MiB (14%)
Alignment : Split accross interleaves
Interleave, duration : 42 ms (1.00 video frame)
Interleave, preload duration : 500 ms



Скачать Вестсайдская.история.West.Side.Story.(Джером.Роббинс.Jerome.Robbins.Роберт.Уайз.Robert.Wise).[1961.мюзикл.драма.мелодрама.криминал.HDTVRip].torrent без регистрации
Золото ЗОЛОТАЯ РАЗДАЧА! СКАЧАННОЕ НЕ ЗАСЧИТЫВАЕТСЯ! Золото
Дата: Зарегистрирован   [ Тип: внутренний ] Как тут cкачать?
MAGNET ссылка
MAGNET ссылка


Скачать .torrent

29 KB

Статус: проверено DHT
Скачан: торрент - 128 раз, раздача полностью - 4 раз
Размер: 1,46 GB
Оценка:  - (Голосов: 0)
Поблагодарили: 1
Поделиться ссылкой на эту раздачу с друзьями:
В контактеFacebookОдноклассникиTwitterLivejournalМой МирLiveinternet
 

 
Показать сообщения:    


Вы не можете начинать темы
Вы не можете отвечать на сообщения
Вы не можете редактировать свои сообщения
Вы не можете удалять свои сообщения
Вы не можете голосовать в опросах
Вы не можете прикреплять файлы к сообщениям
Вы можете скачивать файлы