Loading...
Error

Скачать Солдат / Soldier (Пол У. С. Андерсон / Paul W.S. Anderson) [1998, фантастика, боевик, драма, HDRip] торрент без регистрации

 
Статистика раздачи
Размер:  745 MB   |    Скачан:  190 раз
Сидов:  1  [  0 KB/s  ]  
 
Автор Сообщение

Marsianka

[] 

Информация о фильме
Название: Солдат
Оригинальное название: Soldier
Год выхода: 1998
Жанр: фантастика, боевик, драма
Режиссер: Пол У. С. Андерсон / Paul W.S. Anderson
В ролях: Курт Рассел, Джейсон Скотт Ли, Джейсон Айзекс, Конни Нильсен, Шон Пертуи, Джаред Торн, Тейлор Торн, Марк Бринглсон, Гэри Бьюзи, К.К. Доддс

О фильме:
Солдат забирают в армию чуть ли не с пеленок. Ребенок попадает в школу военных, где без родителей и всяких скидок на детство из отобранного человеческого материала готовят профессиональных солдат. Одним из таких солдат становится Тодд (Курт Расселл).

До 40 с лишним лет провоевал он, став лучшим в своем отряде. Когда на его космический корабль прислали новичков, которые во всех отношениях должны превосходить ветеранов во главе с полковником, выпускником Вест-Пойнта, последний стравил трех ветеранов с новым бойцом, старики проиграли. Их выбросили на свалку далекой планеты Аркадии, но Тодд выжил. Его выходили местные поселенцы, чей корабль много лет назад совершил на этой планете вынужденную посадку, Тодд остался жить среди них.

В его душе были не только страх и дисциплина, как сказал он милой красивой женщине, выходившей его, но и доброта. Когда полковник высадил на планете новых солдат, чтобы испытать их в операции по уничтожению жителей колонии, Тодд доказал, что опыт в сочетании с человеческим фактором стоят гораздо больше, чем генетическая избранность и крепкие мускулы.



Страна: США, Великобритания
Студия: Morgan Creek, Warner Bros.
Продолжительность: 01:38:36
Перевод: Профессиональный (дублированный)

Файл
Кодек: XviD / MP3
Качество: HDRip
Видео: XviD, 688x288 (2.35:1), 23.976 fps, 919 Kbps (0.193 bit/pixel)
Звук: MP3, 48.0 KHz, 2 ch, 128 Kbps, CBR
General
Complete name : E:Soldat_HDRip_[Rutor.org].avi
Format : AVI
Format/Info : Audio Video Interleave
File size : 745 MiB
Duration : 1h 38mn
Overall bit rate : 1 056 Kbps
Writing application : VirtualDubMod 1.5.10.2 (build 2540/release)
Writing library : VirtualDubMod build 2540/release

Video
ID : 0
Format : MPEG-4 Visual
Format profile : Advanced Simple@L5
Format settings, BVOP : 1
Format settings, QPel : No
Format settings, GMC : No warppoints
Format settings, Matrix : Custom
Codec ID : XVID
Codec ID/Hint : XviD
Duration : 1h 38mn
Bit rate : 919 Kbps
Width : 688 pixels
Height : 288 pixels
Display aspect ratio : 2.40:1
Frame rate : 23.976 fps
Color space : YUV
Chroma subsampling : 4:2:0
Bit depth : 8 bits
Scan type : Progressive
Compression mode : Lossy
Bits/(Pixel*Frame) : 0.193
Stream size : 648 MiB (87%)
Writing library : XviD 1.2.1 (UTC 2008-12-04)

Audio
ID : 1
Format : MPEG Audio
Format version : Version 1
Format profile : Layer 3
Codec ID : 55
Codec ID/Hint : MP3
Duration : 1h 38mn
Bit rate mode : Constant
Bit rate : 128 Kbps
Channel(s) : 2 channels
Sampling rate : 48.0 KHz
Compression mode : Lossy
Stream size : 90.3 MiB (12%)
Alignment : Aligned on interleaves
Interleave, duration : 42 ms (1.00 video frame)
Interleave, preload duration : 504 ms
Writing library : LAME3.97
Encoding settings : -m s -V 4 -q 2 -lowpass 17 -b 128



Скачать Солдат.Soldier.(Пол.У.С.Андерсон.Paul.W.S.Anderson).[1998.фантастика.боевик.драма.HDRip].torrent без регистрации
Золото ЗОЛОТАЯ РАЗДАЧА! СКАЧАННОЕ НЕ ЗАСЧИТЫВАЕТСЯ! Золото
Дата: Зарегистрирован   [ Тип: внутренний ] Как тут cкачать?
MAGNET ссылка
MAGNET ссылка


Скачать .torrent

15 KB

Статус: проверено DHT
Скачан: торрент - 190 раз, раздача полностью - 50 раз
Размер: 745 MB
Оценка:  5 (Голосов: 1)
Поблагодарили: 2
Поделиться ссылкой на эту раздачу с друзьями:
В контактеFacebookОдноклассникиTwitterLivejournalМой МирLiveinternet
 

 
Показать сообщения:    


Вы не можете начинать темы
Вы не можете отвечать на сообщения
Вы не можете редактировать свои сообщения
Вы не можете удалять свои сообщения
Вы не можете голосовать в опросах
Вы не можете прикреплять файлы к сообщениям
Вы можете скачивать файлы