Loading...
Error

Скачать Босиком по мостовой / Barfuss (Тиль Швайгер / Til Schweiger) [2005, драма, мелодрама, комедия, DVDRip] торрент без регистрации

 
Статистика раздачи
Размер:  743 MB   |    Скачан:  133 раза
Сидов:  1  [  0 KB/s  ]  
 
Автор Сообщение

Marsianka

[] 

Информация о фильме
Название: Босиком по мостовой
Оригинальное название: Barfuss
Год выхода: 2005
Жанр: драма, мелодрама, комедия
Режиссер: Тиль Швайгер / Til Schweiger
В ролях: Тиль Швайгер /Til Schweiger/, Йоханна Вокалек /Johanna Wokalek/, Стеффен Винк /Steffen Wink/, Микаэль Мендл /Michael Mendl/, Надя Тиллер /Nadja Tiller/, Имоджен Когге /Imogen Kogge/

О фильме:
На что ты способен ради любви? На самом деле Ника Келлера в настоящее время занимают совсем другие вопросы. Он не удерживается ни на одном рабочем месте, и его семья особенно отчим Хайнрих и брат Виктор считают его законченным неудачником. Лишь его мать продолжает в него верить.

Работая уборщиком в психиатрической больнице, Ник в последнюю секунду спасает от самоубийства девушку Лайлу, что приводит к непредвиденным последствиям: Лайла тайно выслеживает своего спасителя и однажды вечером неожиданно появляется в дверях его квартиры. В ночной сорочке и босиком. Все попытки Ника избавиться от Лайлы кончаются неудачей. Девушка твёрдо решила остаться у него навсегда.

И вот необычная парочка Ник, впервые в жизни вынужденный нести за кого-то ответственность, и Лайла, смотрящая на мир изумлёнными глазами ребёнка, отправляется в путешествие, которое их сблизит и навсегда изменит их жизни

Официальный сайт

Страна: Германия
Студия: Buena Vista International Film Production
Продолжительность: 01:50:21
Перевод: Профессиональный (полное дублирование)

Файл
Кодек: XviD / MP3
Качество: DVDRip
Видео: XviD, 704x304 (2.35:1), 25.000 fps, 804 Kbps (0.150 bit/pixel)
Звук: MP3, 48.0 KHz, 2 ch, 128 Kbps, CBR
General
Complete name : E:Barfuss_DVDRip_745_[Rutor.org].avi
Format : AVI
Format/Info : Audio Video Interleave
File size : 743 MiB
Duration : 1h 50mn
Overall bit rate : 941 Kbps
Writing application : VirtualDubMod 1.5.10.2 (build 2540/release)
Writing library : VirtualDubMod build 2540/release

Video
ID : 0
Format : MPEG-4 Visual
Format profile : Advanced Simple@L5
Format settings, BVOP : 1
Format settings, QPel : No
Format settings, GMC : No warppoints
Format settings, Matrix : Default (MPEG)
Codec ID : XVID
Codec ID/Hint : XviD
Duration : 1h 50mn
Bit rate : 804 Kbps
Width : 704 pixels
Height : 304 pixels
Display aspect ratio : 2.35:1
Frame rate : 25.000 fps
Color space : YUV
Chroma subsampling : 4:2:0
Bit depth : 8 bits
Scan type : Progressive
Compression mode : Lossy
Bits/(Pixel*Frame) : 0.150
Stream size : 634 MiB (85%)
Writing library : XviD 1.2.0.dev47 (UTC 2006-11-01)

Audio
ID : 1
Format : MPEG Audio
Format version : Version 1
Format profile : Layer 3
Codec ID : 55
Codec ID/Hint : MP3
Duration : 1h 50mn
Bit rate mode : Constant
Bit rate : 128 Kbps
Channel(s) : 2 channels
Sampling rate : 48.0 KHz
Compression mode : Lossy
Stream size : 101 MiB (14%)
Alignment : Aligned on interleaves
Interleave, duration : 40 ms (1.00 video frame)
Interleave, preload duration : 504 ms
Writing library : LAME3.97
Encoding settings : -m s -V 4 -q 2 -lowpass 17 -b 128



Скачать Босиком.по.мостовой.Barfuss.(Тиль.Швайгер.Til.Schweiger).[2005.драма.мелодрама.комедия.DVDRip].torrent без регистрации
Золото ЗОЛОТАЯ РАЗДАЧА! СКАЧАННОЕ НЕ ЗАСЧИТЫВАЕТСЯ! Золото
Дата: Зарегистрирован   [ Тип: внутренний ] Как тут cкачать?
MAGNET ссылка
MAGNET ссылка


Скачать .torrent

15 KB

Статус: проверено DHT
Скачан: торрент - 133 раз, раздача полностью - 96 раз
Размер: 743 MB
Оценка:  4 (Голосов: 1)
Поблагодарили: 2
Поделиться ссылкой на эту раздачу с друзьями:
В контактеFacebookОдноклассникиTwitterLivejournalМой МирLiveinternet
 

 
Показать сообщения:    


Вы не можете начинать темы
Вы не можете отвечать на сообщения
Вы не можете редактировать свои сообщения
Вы не можете удалять свои сообщения
Вы не можете голосовать в опросах
Вы не можете прикреплять файлы к сообщениям
Вы можете скачивать файлы