Loading...
Error

Скачать Фанат / The Fan (Тони Скотт / Tony Scott) [1996, Триллер, Драма, Спорт, DVDRip] торрент без регистрации

 
Статистика раздачи
Размер:  1,46 GB   |    Скачан:  137 раз
Сидов:  1  [  0 KB/s  ]  
 
Автор Сообщение

Marsianka

[] 



Информация о фильме
Название: Фанат
Оригинальное название: The Fan
Год выхода: 1996
Жанр: Триллер, Драма, Спорт
Режиссер: Тони Скотт / Tony Scott
В ролях: Роберт Де Ниро / Robert De Niro, Уэсли Снайпс / Wesley Snipes, Эллен Баркин / Ellen Barkin, Джон Легуизамо / John Leguizamo, Бенисио Дель Торо / Benicio Del Toro, Патти Д`Арбанвилль / Patti D'Arbanville, Крис Малки / Chris Mulkey, Эндрю Дж. Ферчланд / Andrew J. Ferchland, Брэндон Хэммонд / Brandon Hammond, Чарльз Халлахан / Charles Hallahan

О фильме:
Звезда бейсбола Бобби Рейберн переходит в команду &laquoSan Francisco Giants&raquo. Теперь он находится под пристальным вниманием не только репортеров и телекамер, но и маниакально любящего бейсбол Джила Рейнарда, болеющего за &laquoGiants&raquo. И когда в новой команде дела у Бобби идут из рук вон плохо, Джил решает принять меры
General
Complete name : The_Fan_FANAT_1996.avi
Format : AVI
Format/Info : Audio Video Interleave
File size : 1.46 GiB
Duration : 1h 56mn
Overall bit rate : 1 789 Kbps
Writing application : VirtualDubMod 1.5.4.1 (build 2178/release)
Writing library : VirtualDubMod build 2178/release

Video
ID : 0
Format : MPEG-4 Visual
Format profile : Advanced Simple@L5
Format settings, BVOP : Yes
Format settings, QPel : No
Format settings, GMC : No warppoints
Format settings, Matrix : Custom
Codec ID : XVID
Codec ID/Hint : XviD
Duration : 1h 56mn
Bit rate : 1 398 Kbps
Width : 720 pixels
Height : 544 pixels
Display aspect ratio : 4:3
Frame rate : 23.976 fps
Color space : YUV
Chroma subsampling : 4:2:0
Bit depth : 8 bits
Scan type : Progressive
Bits/(Pixel*Frame) : 0.149
Stream size : 1.14 GiB (78%)
Writing library : XviD 1.2.0.dev47 (UTC 2006-11-01)

Audio
ID : 1
Format : AC-3
Format/Info : Audio Coding 3
Mode extension : CM (complete main)
Codec ID : 2000
Duration : 1h 56mn
Bit rate mode : Constant
Bit rate : 384 Kbps
Channel(s) : 6 channels
Channel positions : Front: L C R, Side: L R, LFE
Sampling rate : 48.0 KHz
Bit depth : 16 bits
Stream size : 321 MiB (21%)
Alignment : Split accross interleaves
Interleave, duration : 96 ms (2.30 video frames)
Interleave, preload duration : 96 ms
Language : Russian

Страна: США
Студия: Columbia/Sony
Продолжительность: 01:56:41
Перевод: Профессиональный (одноголосый, закадровый)

Файл
Кодек: XviD MPEG-4 codec
Качество: DVDRip
Видео: Resolution : 720x544 FPS : 23,98 BitRate : 1405 Kbps Quality Factor : 0,15 b/px
Звук: Codec : ATSC/A-52 Dolby AC3 Number of channels : 6 Sample Rate : 48000 Hz BitRate : 384 Kbps

Семпл



Скачать Фанат.The.Fan.(Тони.Скотт.Tony.Scott).[1996.Триллер.Драма.Спорт.DVDRip].torrent без регистрации
Золото ЗОЛОТАЯ РАЗДАЧА! СКАЧАННОЕ НЕ ЗАСЧИТЫВАЕТСЯ! Золото
Дата: Зарегистрирован   [ Тип: внутренний ] Как тут cкачать?
MAGNET ссылка
MAGNET ссылка


Скачать .torrent

15 KB

Статус: проверено DHT
Скачан: торрент - 137 раз, раздача полностью - 15 раз
Размер: 1,46 GB
Оценка:  - (Голосов: 0)
Поблагодарили: 1
Поделиться ссылкой на эту раздачу с друзьями:
В контактеFacebookОдноклассникиTwitterLivejournalМой МирLiveinternet
 

 
Показать сообщения:    


Вы не можете начинать темы
Вы не можете отвечать на сообщения
Вы не можете редактировать свои сообщения
Вы не можете удалять свои сообщения
Вы не можете голосовать в опросах
Вы не можете прикреплять файлы к сообщениям
Вы можете скачивать файлы