Loading...
Error

Скачать Кости / Bones (сезон 08) (Иэн Тойнтон) [2012, драма, мелодрама, комедия, криминал, детектив, WEB-DLRip] [720p] [DVO (To4ka)] торрент без регистрации

 
Статистика раздачи
Размер:  36,61 GB   |    Скачан:  248 раз
Сидов:  1  [  0 KB/s  ]  
 
Автор Сообщение

МихаНЕзатор

[] 

Название: Кости
Оригинальное название: Bones
Год выпуска: 2012
Жанр: драма, детектив
Режиссер: Иэн Тойнтон
В ролях: Эмили Дешанель, Дэвид Бореаназ, Микаэла Конлин, Тамара Тэйлор, Томас Джозеф Тайн, Джон Фрэнсис Дэйли и др.

Описание: Доктор Темперанс Бреннан, блестящий, но одинокий антрополог получает то, чего она меньше всего желала напарника. Бюро посылает ей амбициозного агента ФБР Сили Бута, чтобы помочь в расследовании нераскрытых дел путем изучения и идентификации костей давно пропавших людей.

Но давно умершие жертвы не единственное, с чем придется столкнуться Боунс, Буту и их команде, раскрывая преступления они часто сталкиваются с взяточничеством, коррупцией и местной разрозненностью.

Страна: США
Продолжительность: 17 x ~ 00:45:00
Перевод: Любительский (двухголосый, закадровый) - To4ka
Субтитры: Нет

Перевод: notabenoid
Озвучка: Катерина Магура и Вячеслав Айсберг
Монтаж: veryserg

Релиз от:

size=14]25.05.2013 г. торент обновлён, добавлена 23-24 серия![/size]

Качество: WEB-DLRip 720p
Формат: МКV
Видео: MPEG-4 AVC, ~ 3860 Кбит/с, 1280x718
Аудио rus: AC3, 6 ch, 384 Кбит/с
Аудио eng: AC3, 6 ch, 384 Кбит/с

01. Будущее в прошлом / The Future in the Past
02. Партнеры в разводе / The Partners in the Divorce
03. Месиво в гараже / The Gunk in the Garage
04. Тигр в сказке / The Tiger In The Tale
05. Метод на грани безумия / Method to the Madness
06. Патриот в чистилище / The Patriot in Purgatory
07. Гуманоид в коконе / The Bod in the Pod
08. Шутка, но всерьез / The But in the Joke
09. Призрак в машине / Ghost in the Machine
10. Алмаз неограненый / The Diamond in the Rough
11. Археолог в коконе / The Archaeologist in the Cocoon
12. Труп над кроватью / The Corpse on the Canopy
13 The Twist In The Plot / Поворот сюжета
14. Кукла в Дерби / The Doll in the Derby
15. Выстрел в темноте / The Shot in the Dark
16. Друг нуждается в тебе / The Friend in Need
17. Фантастический факт / The Fact in the Fiction
18. Выживший в мыле / The Survivor in the Soap
19. The Doom in the Gloom
20. The Blood from the Stones
21. The Maiden in the Mushrooms
22. The Party in the Pants
23. Пафос в патогенных / The Pathos in the Pathogens
24. Секрет в осаде / The Secret in the Siege
Complete name : I:Kosti.S8.2012.x264.WEB-DL.720p.To4kaTVBones.s08e08.WEB-DL.720p.Rus.Eng.To4ka.TV.mkv
Format : Matroska
File size : 1.51 GiB
Duration : 45mn 53s
Overall bit rate : 4 716 Kbps
Encoded date : UTC 2012-11-29 14:55:19
Writing application : mkvmerge v2.0.0 ('After The Rain Has Fallen') built on Jan 13 2007 19:58:56
Writing library : libebml v0.7.7 + libmatroska v0.8.0

Video
ID : 1
Format : AVC
Format/Info : Advanced Video Codec
Format profile : High@L3.1
Format settings, CABAC : No
Format settings, ReFrames : 2 frames
Format settings, GOP : M=2, N=25
Codec ID : V_MPEG4/ISO/AVC
Duration : 45mn 53s
Bit rate : 3 854 Kbps
Width : 1 280 pixels
Height : 718 pixels
Display aspect ratio : 16:9
Frame rate : 23.976 fps
Color space : YUV
Chroma subsampling : 4:2:0
Bit depth : 8 bits
Scan type : Progressive
Bits/(Pixel*Frame) : 0.175
Stream size : 1.24 GiB (82%)
Language : English
Color primaries : BT.709-5, BT.1361, IEC 61966-2-4, SMPTE RP177
Transfer characteristics : BT.709-5, BT.1361
Matrix coefficients : BT.709-5, BT.1361, IEC 61966-2-4 709, SMPTE RP177

Audio #1
ID : 2
Format : AC-3
Format/Info : Audio Coding 3
Mode extension : CM (complete main)
Codec ID : A_AC3
Duration : 45mn 53s
Bit rate mode : Constant
Bit rate : 384 Kbps
Channel(s) : 6 channels
Channel positions : Front: L C R, Side: L R, LFE
Sampling rate : 48.0 KHz
Bit depth : 16 bits
Compression mode : Lossy
Stream size : 126 MiB (8%)
Title : To4ka.TV
Language : Russian

Audio #2
ID : 3
Format : AC-3
Format/Info : Audio Coding 3
Mode extension : CM (complete main)
Codec ID : A_AC3
Duration : 45mn 53s
Bit rate mode : Constant
Bit rate : 384 Kbps
Channel(s) : 6 channels
Channel positions : Front: L C R, Side: L R, LFE
Sampling rate : 48.0 KHz
Bit depth : 16 bits
Compression mode : Lossy
Stream size : 126 MiB (8%)
Language : English



Скачать Кости.Bones.(сезон.08).(Иэн.Тойнтон).[2012.драма.мелодрама.комедия.криминал.детектив.WEB-DLRip].[720p].[DVO.(To4ka)].torrent без регистрации
Золото ЗОЛОТАЯ РАЗДАЧА! СКАЧАННОЕ НЕ ЗАСЧИТЫВАЕТСЯ! Золото
Дата: Зарегистрирован   [ Тип: внутренний ] Как тут cкачать?
MAGNET ссылка
MAGNET ссылка


Скачать .torrent

185 KB

Статус: проверено DHT
Скачан: торрент - 248 раз, раздача полностью - 37 раз
Размер: 36,61 GB
Оценка:  - (Голосов: 0)
Поблагодарили: 1
Поделиться ссылкой на эту раздачу с друзьями:
В контактеFacebookОдноклассникиTwitterLivejournalМой МирLiveinternet
 

 

МихаНЕзатор

[] 

Раздача обновлена.
 
Показать сообщения:    


Вы не можете начинать темы
Вы не можете отвечать на сообщения
Вы не можете редактировать свои сообщения
Вы не можете удалять свои сообщения
Вы не можете голосовать в опросах
Вы не можете прикреплять файлы к сообщениям
Вы можете скачивать файлы