Loading...
Error

Скачать Счастливого Рождества / Joyeux No›l (Кристиан Карион) [2005, драма, мелодрама, военный, музыка, DVDRip] [AVC] [PowerTracker] торрент без регистрации

 
Статистика раздачи
Размер:  2,18 GB   |    Скачан:  124 раза
Сидов:  1  [  0 KB/s  ]  
 
Автор Сообщение

Marsianka

[] 

Счастливого Рождества / Joyeux No›l (2005) DVDRip-AVC от PowerTracker

Жанр: драма, мелодрама, военный, музыка
Страна: Германия , Франция , Великобритания , Норвегия , Бельгия , Румыния
Режиссер: Кристиан Карион
В ролях: Даниэль Брюль, Дайан Крюгер, Бенно Фюрманн, Гийом Кане, Гари Льюис, Дэни Бун, Люка Бельво, Натали Дессей, Роландо Вильясон, Алекс Фернс ...

Сюжет фильма: В канун Рождества 1914 года четверо людей пережили незабываемое. Шотландский священник, французский лейтенант, немецкий тенор и его возлюбленная оказались в самом сердце спонтанного братства, возникшего между траншеями немцев, англичан и французов. Ружья были оставлены на дне окопов, а сами солдаты и офицеры вышли навстречу друг другу, чтобы обменяться сигаретами, разделить шоколад и пожелать друг другу: «Счастливого Рождества!»

«Как говорит режиссер Кристиан Кэрион: «В нашей истории нет врагов. Есть только чудовищная пропасть между людьми в противоположных окопах. За какую бы сторону они ни воевали&raquo. А еще в этом фильме есть звездное небо над головами и нравственный мир внутри И совершенно не важно, какой национальности человек произнёс, что именно две эти вещи только и имеют смысл для всего сущего.»

Мировая премьера: 16 мая 2005
Российская премьера: 15 декабря 2005, «Централ Партнершип»



Продолжительность: 01:50:58
Качество видео: DVDRip-AVC
Видео: кодек: x264, размер кадра: 716x428 @ 1017x428, битрейт: 1921 кб/с, bit/pixel: 0.251
Аудио #1: язык: Русский , перевод: многоголосый закадровый, кодек: AC3 5.1, битрейт: 448.00 кб/с
Аудио #2: язык: Английский , перевод: оригинал, кодек: AC3 5.1, битрейт: 448.00 кб/с

&
Первоначально, фильму планировалось поставить рейтинг R. Но после осуждения этого факта известным кинокритиком Роджером Эбертом, MPAA официально поменяла рейтинг на PG-13.
Этот фильм посвящен всем солдатам, сражавшимся на различных фронтах во время Рождества 1914 года.
Полное имя : D:HDJoyeux Noel.2005.HQDVDRip-AVC-PT.mkv
Формат : Matroska
Размер файла : 2,18 Гбайт
Продолжительность : 1 ч. 50 м.
Общий поток : 2819 Кбит/сек
Название фильма : Счастливого Рождества / Joyeux No›l (2005) DVDRip-AVC rip by rulya74
Дата кодирования : UTC 2011-12-10 06:30:53
Программа кодирования : mkvmerge v4.8.0 ('I Got The...') сборка от May 31 2011 13:11:21
Библиотека кодирования : libebml v1.2.0 + libmatroska v1.1.0

Видео
Идентификатор : 1
Формат : AVC
Формат/Информация : Advanced Video Codec
Профиль формата : High@L4.1
Параметр CABAC формата : Да
Параметр ReFrames формата : 12 кадров
Идентификатор кодека : V_MPEG4/ISO/AVC
Продолжительность : 1 ч. 50 м.
Битрейт : 1921 Кбит/сек
Ширина : 716 пикс.
Высота : 428 пикс.
Соотношение сторон : 2,35:1
Частота кадров : 25,000 кадр/сек
Цветовое пространство : YUV
Подвыборка цветности : 4:2:0
Битовая глубина : 8 бит
Тип развёртки : Прогрессивная
Бит/(Пиксели*Кадры) : 0.251
Размер потока : 1,45 Гбайт (66%)
Библиотека кодирования : x264 core 116 r2074 2641b9e
Настройки программы : cabac=1 / ref=12 / deblock=1:-3:-2 / analyse=0x3:0x113 / me=umh / subme=9 / psy=1 / psy_rd=1.00:0.00 / mixed_ref=1 / me_range=48 / chroma_me=1 / trellis=2 / 8x8dct=1 / cqm=0 / deadzone=21,11 / fast_pskip=1 / chroma_qp_offset=-2 / threads=3 / sliced_threads=0 / nr=0 / decimate=1 / interlaced=0 / bluray_compat=0 / constrained_intra=0 / bframes=7 / b_pyramid=2 / b_adapt=1 / b_bias=0 / direct=1 / weightb=1 / open_gop=0 / weightp=2 / keyint=250 / keyint_min=25 / scenecut=40 / intra_refresh=0 / rc_lookahead=40 / rc=2pass / mbtree=1 / bitrate=1921 / ratetol=1.0 / qcomp=0.60 / qpmin=10 / qpmax=51 / qpstep=4 / cplxblur=20.0 / qblur=0.5 / ip_ratio=1.40 / aq=1:1.00

Аудио #1
Идентификатор : 2
Формат : AC-3
Формат/Информация : Audio Coding 3
Расширение режима : CM (complete main)
Идентификатор кодека : A_AC3
Продолжительность : 1 ч. 50 м.
Вид битрейта : Постоянный
Битрейт : 448 Кбит/сек
Каналы : 6 каналов
Расположение каналов : Front: L C R, Side: L R, LFE
Частота : 48,0 КГц
Битовая глубина : 16 бит
Метод сжатия : С потерями
Размер потока : 356 Мбайт (16%)
Заголовок : MVO
Язык : Russian

Аудио #2
Идентификатор : 3
Формат : AC-3
Формат/Информация : Audio Coding 3
Расширение режима : CM (complete main)
Идентификатор кодека : A_AC3
Продолжительность : 1 ч. 50 м.
Вид битрейта : Постоянный
Битрейт : 448 Кбит/сек
Каналы : 6 каналов
Расположение каналов : Front: L C R, Side: L R, LFE
Частота : 48,0 КГц
Битовая глубина : 16 бит
Метод сжатия : С потерями
Размер потока : 356 Мбайт (16%)
Заголовок : Original
Язык : English

Меню
00:00:00.000 : :Chapter 01
00:07:34.800 : :Chapter 02
00:16:22.800 : :Chapter 03
00:22:42.000 : :Chapter 04
00:30:04.200 : :Chapter 05
00:39:53.400 : :Chapter 06
00:48:53.400 : :Chapter 07
00:57:04.200 : :Chapter 08
01:07:10.200 : :Chapter 09
01:19:38.400 : :Chapter 10
01:27:45.600 : :Chapter 11
01:40:15.000 : :Chapter 12



Скачать Счастливого.Рождества.Joyeux.No›l.(Кристиан.Карион).[2005.драма.мелодрама.военный.музыка.DVDRip].[AVC].[PowerTracker].torrent без регистрации
Золото ЗОЛОТАЯ РАЗДАЧА! СКАЧАННОЕ НЕ ЗАСЧИТЫВАЕТСЯ! Золото
Дата: Зарегистрирован   [ Тип: внутренний ] Как тут cкачать?
MAGNET ссылка
MAGNET ссылка


Скачать .torrent

11 KB

Статус: проверено DHT
Скачан: торрент - 124 раз, раздача полностью - 21 раз
Размер: 2,18 GB
Оценка:  - (Голосов: 0)
Поблагодарили: 1
Поделиться ссылкой на эту раздачу с друзьями:
В контактеFacebookОдноклассникиTwitterLivejournalМой МирLiveinternet
 

 
Показать сообщения:    


Вы не можете начинать темы
Вы не можете отвечать на сообщения
Вы не можете редактировать свои сообщения
Вы не можете удалять свои сообщения
Вы не можете голосовать в опросах
Вы не можете прикреплять файлы к сообщениям
Вы можете скачивать файлы