Loading...
Error

Скачать Старикам тут не место / No Country for Old Men (Итэн Коэн, Джоэл Коэн / Ethan Coen, Joel Coen) [2007,триллер, драма, криминал, HDRip] Dub торрент без регистрации

 
Статистика раздачи
Размер:  751 MB   |    Скачан:  161 раз

Полного источника не было: 7 месяцев

 
Автор Сообщение

leon030982

[] 

Старикам тут не место / No Country for Old Men

Страна: США
Жанр: триллер, драма, криминал
Год выпуска: 2007
Продолжительность: 02:02:10
Перевод: Профессиональный (дублированный)
Cубтитры: нет
Режиссер: Итэн Коэн, Джоэл Коэн / Ethan Coen, Joel Coen
В ролях:
Томми Ли Джонс
Хавьер Бардем
Джош Бролин
Вуди Харрельсон
Келли Макдоналд
Гаррет Диллахант
Тесс Харпер
Бэрри Корбин
Стивен Рут
Роджер Бойс
Описание:
Обычный работяга обнаруживает в пустыне гору трупов, грузовик, набитый героином, и соблазнительную сумму в два миллиона долларов наличными. Он решает взять деньги себе, и результатом становится волна насилия, которую не может остановить вся полиция Западного Техаса.
Доп. информация:
7.759 (18 636)
8.3/10 (222,201 votes) Top 250 #122
Название фильма взято из первой строки поэмы Уильяма Батлера Йитса «Плавание в Византий».
Аптека, возле которой Чигур взрывает припаркованный на улице автомобиль, называется «Mike Zoss Pharmacy». В аптеке с таким же названием в Миннеаполисе Джоэл Коэн и Итан Коэн в детстве проводили множество времени. Их собственная кинокомпания также называется «Mike Zoss Productions».
Причёска убийцы-маньяка Антона Чигура взята с фотографии посетителя борделя, сделанной в 1979 году. После того, как эта причёска была воплощена в жизнь, Хавьер Бардем воскликнул, глядя на себя в зеркало: «О нет, теперь я на два месяца остался без секса!».
Продюсеры вели переговоры с Хитом Леджером на роль Ллуэлина Мосса, однако последний в конечном итоге отказался от участия в фильме.
Практически все съёмки фильма прошли в Лас Вегасе, Нью Мексико.
В отличие от многих картин, снятых по книгам, большинство событий фильма развивается в той же последовательности, что и в книге.
Братья Коэны отказали Джошу Бролину в пробах на фильм. Поэтому Джош попросил Роберта Родригеза помочь ему записать пробы на роль. Пробы Джоша снимались на камеру стоимостью $950,000, за камерой стоял Роберт Родригез, съёмками руководил Квентин Тарантино.
Оружие, которое использует Антон Чигур, - пистолет с выдвигающимся ударным стержнем, который часто применяется на скотобойнях.
В фильме отсутствует оригинальный саундтрек. Только на финальных титрах зритель услышит музыку, написанную для фильма.
Джоэл и Итан Коэны не только выступили продюсерами, сценаристами и режиссерами фильма, но и сами его смонтировали. Однако в титрах указан их общий псевдоним Родерик Джэйнс.
Коэны любят давать ссылки на одного из любимых своих режиссеров – Стэнли Кубрика. Так, в фильме появляется комната в мотеле с номером 114; этот номер неоднократно появлялся и в фильмах Кубрика.
Съемочный период: 23 мая – 16 августа 2006.
Братья Коэны пытались сохранить не только дух, но и букву романа – большинство диалогов и монологов в фильме, в частности, финальная речь шерифа Белла, повторяют слово в слово книжные диалоги и монологи.
Город Одесса, в который по сюжету бежит Карла Джейн Мосс, находится вовсе не в Украине. На самом деле, здесь имеется ввиду одноимённый городок с населением 78 тыс жителей на юге США (штат Техас).
Фильм снимался одновременно с «Нефтью» Пола Томаса Андерсона, и съёмочные площадки находились недалеко друг от друга, на расстоянии двух холмов. Однажды Коэнам пришлось прервать съёмки, потому что со съёмочной площадки «Нефти» валил густой дым, попадающий в кадр.
Действие происходит в Техасе, но по финансовым соображениям фильм снимался в Лас-Вегасе, штат Нью-Мексико. Тем не менее, по настоянию Томми Ли Джонса, братья Коэны сняли несколько сцен на западе Техаса.
Пол Уокер активно претендовал на роль Мосса. По его словам он всегда хотел сняться у братьев Коэнов. В «Старикам тут не место» Пол даже прошел кастинг. Но братья предпочли Хита Леджера, после отказа которого роль перешла Джошу Бролину.
Качество видео: HDRip, исходник - BDRip 720p
Формат видео: AVI
Видео: 640x272 (2.35:1), 23.976 fps, XviD build 61 ~721 kbps avg, 0.17 bit/pixel
Аудио: 48 kHz, MPEG Layer 3, 2 ch, ~128.00 kbps avg
Общее
Полное имя : ...Старикам тут не место_745.avi
Формат : AVI
Формат/Информация : Audio Video Interleave
Размер файла : 751 Мбайт
Продолжительность : 2 ч. 2 м.
Общий поток : 859 Кбит/сек
Программа кодирования : VirtualDubModRus 1.5.10.2 (build 2540/release)
Библиотека кодирования : VirtualDubMod build 2540/release
Видео
Идентификатор : 0
Формат : MPEG-4 Visual
Профиль формата : Advanced Simple@L5
Параметр BVOP формата : 1
Параметр QPel формата : Нет
Параметр GMC формата : Без точки перехода
Параметр матрицы формата : Выборочная
Идентификатор кодека : XVID
Идентификатор кодека/Подсказка : XviD
Продолжительность : 2 ч. 2 м.
Битрейт : 722 Кбит/сек
Ширина : 640 пикс.
Высота : 272 пикс.
Соотношение сторон : 2,35:1
Частота кадров : 23,976 кадр/сек
Цветовое пространство : YUV
Подвыборка цветности : 4:2:0
Битовая глубина : 8 бит
Тип развёртки : Прогрессивная
Метод сжатия : С потерями
Бит/(Пиксели*Кадры) : 0.173
Размер потока : 631 Мбайт (84%)
Библиотека кодирования : XviD 61
Аудио
Идентификатор : 1
Формат : MPEG Audio
Версия формата : Version 1
Профиль формата : Layer 3
Режим : Joint stereo
Расширение режима : MS Stereo
Идентификатор кодека : 55
Идентификатор кодека/Подсказка : MP3
Продолжительность : 2 ч. 2 м.
Вид битрейта : Постоянный
Битрейт : 128 Кбит/сек
Канал(ы) : 2 канала(ов)
Частота : 48,0 КГц
Метод сжатия : С потерями
Размер потока : 112 Мбайт (15%)
Выравнивание : Разделение по промежуткам
Продолжительность промежутка : 42 мс. (1,00 видеокадр)
Время предзагрузки промежутка : 500 ms
Библиотека кодирования : LAME3.98.2



Скачать Старикам.тут.не.место.No.Country.for.Old.Men.(Итэн.Коэн.Джоэл.Коэн.Ethan.Coen.Joel.Coen).[2007.триллер.драма.криминал.HDRip].Dub.torrent без регистрации
Золото ЗОЛОТАЯ РАЗДАЧА! СКАЧАННОЕ НЕ ЗАСЧИТЫВАЕТСЯ! Золото
Дата: Зарегистрирован   [ Тип: внутренний ] Как тут cкачать?
MAGNET ссылка
MAGNET ссылка


Скачать .torrent

15 KB

Статус: проверено
Скачан: торрент - 161 раз, раздача полностью - 107 раз
Размер: 751 MB
Оценка:  4,5 (Голосов: 2)
Поблагодарили: 3
Поделиться ссылкой на эту раздачу с друзьями:
В контактеFacebookОдноклассникиTwitterLivejournalМой МирLiveinternet
 

 
Показать сообщения:    


Вы не можете начинать темы
Вы не можете отвечать на сообщения
Вы не можете редактировать свои сообщения
Вы не можете удалять свои сообщения
Вы не можете голосовать в опросах
Вы не можете прикреплять файлы к сообщениям
Вы можете скачивать файлы