Loading...
Error

Скачать От заката до рассвета / From Dusk Till Dawn (Роберт Родригес) [1996, ужасы, фэнтези, боевик, триллер, комедия, криминал, BDRip-AVC] [MVO RUS+UKR]+[Гоблин] торрент без регистрации

 
Статистика раздачи
Размер:  2,18 GB   |    Скачан:  307 раз
Сидов:  1  [  0 KB/s  ]  
 
Автор Сообщение

Marsianka

[] 

От заката до рассвета / From Dusk Till Dawn (1996) BDRip-AVC от PowerTracker

Жанр: ужасы, фэнтези, боевик, триллер, комедия, криминал
Страна: США
Режиссер: Роберт Родригес
В ролях: Харви Кейтель, Джордж Клуни, Квентин Тарантино, Джульетт Льюис, Эрнест Лю, Сальма Хайек, Чич Марин, Дэнни Трехо, Том Савини, Фред Уильямсон, Чич Марин, Майкл Паркс, Бренда Хиллхаус, Джон Саксон

Сюжет фильма: Братья Гекко (Сет и Ричард) только что ограбили банк, убив по пути много полицейских и мирных граждан. Для прикрытия они взяли в заложницы одну из работниц банка немолодую женщину по имени Глория. Психически неуравновешенный Ричард убивает её, когда брат отлучается. Но братьям нужно выбираться из страны они уже договорились с мексиканской мафией, что те за тридцать процентов суммы награбленного дают им приют на своей территории в городе Эль Рей. Дело осталось «за малым» миновать ФБР и всю полицию штата Техас, для которых поимка двух бандитов стала делом чести...

Мировая премьера: 19 января 1996



Продолжительность: 01:48:11
Качество видео: BDRip-AVC
Видео: кодек: x264, размер кадра: 1024х556, битрейт: 1933 кб/с, bit/pixel: 0.142
Аудио #1: язык: Русский , перевод: многоголосый закадровый (Вест-Видео), кодек: AC3 5.1, битрейт: 384.00 кб/с
Аудио #2: язык: Русский , перевод: одноголосный закадровый (Гоблин - ненормативная лексика), кодек: AC3 2.0, битрейт: 192.00 кб/с
Аудио #3: язык: Украинский , перевод: многоголосый закадровый (Новый Канал), кодек: AC3 2.0, битрейт: 192.00 кб/с
Аудио #4: язык: Английский , перевод: оригинал, кодек: AC3 2.0, битрейт: 192.00 кб/с
Субтитры: тип: вшитые отключаемые, формат: SRT, язык: Русский, Русский (Гоблин - ненормативная лексика), Украинский, Английский

&
Общее
Уникальный идентификатор : 209840894550253970339646662565921436157 (0x9DDDE2E06FD25DAEB4923E6FB3F631FD)
Полное имя : D:From Dusk Till Dawn.1996.BDRip-AVC.PT.mkv
Формат : Matroska
Версия формата : Version 2
Размер файла : 2,18 Гбайт
Продолжительность : 1 ч. 48 м.
Общий поток : 2891 Кбит/сек
Название фильма : От заката до рассвета / From Dusk Till Dawn (1996) BDRip-AVC rip by rulya74
Дата кодирования : UTC 2011-12-23 12:51:17
Программа кодирования : mkvmerge v4.8.0 ('I Got The...') сборка от May 31 2011 13:11:21
Библиотека кодирования : libebml v1.2.0 + libmatroska v1.1.0

Видео
Идентификатор : 1
Формат : AVC
Формат/Информация : Advanced Video Codec
Профиль формата : High@L4.1
Параметр CABAC формата : Да
Параметр ReFrames формата : 9 кадров
Режим смешивания : Header stripping
Идентификатор кодека : V_MPEG4/ISO/AVC
Продолжительность : 1 ч. 48 м.
Битрейт : 1933 Кбит/сек
Ширина : 1024 пикселя
Высота : 556 пикселей
Соотношение сторон : 16:9
Частота кадров : 23,976 кадра/сек
Цветовое пространство : YUV
Субдискретизация насыщенности : 4:2:0
Битовая глубина : 8 бит
Тип развёртки : Прогрессивная
Бит/(Пиксели*Кадры) : 0.142
Размер потока : 1,42 Гбайт (65%)
Библиотека кодирования : x264 core 116 r2074 2641b9e
Настройки программы : cabac=1 / ref=9 / deblock=1:-3:-3 / analyse=0x3:0x113 / me=umh / subme=10 / psy=1 / psy_rd=1.00:0.00 / mixed_ref=1 / me_range=48 / chroma_me=1 / trellis=2 / 8x8dct=1 / cqm=0 / deadzone=21,11 / fast_pskip=1 / chroma_qp_offset=-2 / threads=3 / sliced_threads=0 / nr=0 / decimate=1 / interlaced=0 / bluray_compat=0 / constrained_intra=0 / bframes=11 / b_pyramid=2 / b_adapt=1 / b_bias=0 / direct=1 / weightb=1 / open_gop=0 / weightp=2 / keyint=250 / keyint_min=23 / scenecut=40 / intra_refresh=0 / rc_lookahead=40 / rc=2pass / mbtree=1 / bitrate=1933 / ratetol=1.0 / qcomp=0.60 / qpmin=10 / qpmax=51 / qpstep=4 / cplxblur=20.0 / qblur=0.5 / ip_ratio=1.40 / aq=1:1.00
Default : Да
Forced : Нет

Аудио #1
Идентификатор : 2
Формат : AC-3
Формат/Информация : Audio Coding 3
Расширение режима : CM (complete main)
Режим смешивания : Header stripping
Идентификатор кодека : A_AC3
Продолжительность : 1 ч. 48 м.
Вид битрейта : Постоянный
Битрейт : 384 Кбит/сек
Каналы : 6 каналов
Расположение каналов : Front: L C R, Side: L R, LFE
Частота : 48,0 КГц
Битовая глубина : 16 бит
Метод сжатия : С потерями
Размер потока : 297 Мбайт (13%)
Заголовок : MVO (Вест-Видео)
Язык : Russian
Default : Да
Forced : Нет

Аудио #2
Идентификатор : 3
Формат : AC-3
Формат/Информация : Audio Coding 3
Расширение режима : CM (complete main)
Режим смешивания : Header stripping
Идентификатор кодека : A_AC3
Продолжительность : 1 ч. 48 м.
Вид битрейта : Постоянный
Битрейт : 192 Кбит/сек
Каналы : 2 канала
Расположение каналов : Front: L R
Частота : 48,0 КГц
Битовая глубина : 16 бит
Метод сжатия : С потерями
Размер потока : 149 Мбайт (7%)
Заголовок : AVO (Гоблин)
Язык : Russian
Default : Нет
Forced : Нет

Аудио #3
Идентификатор : 4
Формат : AC-3
Формат/Информация : Audio Coding 3
Расширение режима : CM (complete main)
Режим смешивания : Header stripping
Идентификатор кодека : A_AC3
Продолжительность : 1 ч. 48 м.
Вид битрейта : Постоянный
Битрейт : 192 Кбит/сек
Каналы : 2 канала
Расположение каналов : Front: L R
Частота : 48,0 КГц
Битовая глубина : 16 бит
Метод сжатия : С потерями
Размер потока : 149 Мбайт (7%)
Заголовок : MVO (Новый канал)
Язык : Ukrainian
Default : Нет
Forced : Нет

Аудио #4
Идентификатор : 5
Формат : AC-3
Формат/Информация : Audio Coding 3
Расширение режима : CM (complete main)
Режим смешивания : Header stripping
Идентификатор кодека : A_AC3
Продолжительность : 1 ч. 48 м.
Вид битрейта : Постоянный
Битрейт : 192 Кбит/сек
Каналы : 2 канала
Расположение каналов : Front: L R
Частота : 48,0 КГц
Битовая глубина : 16 бит
Метод сжатия : С потерями
Размер потока : 149 Мбайт (7%)
Заголовок : Original
Язык : English
Default : Нет
Forced : Нет

Текст #1
Идентификатор : 6
Формат : UTF-8
Идентификатор кодека : S_TEXT/UTF8
Идентификатор кодека/Информация : UTF-8 Plain Text
Заголовок : R5
Язык : Russian
Default : Да
Forced : Нет

Текст #2
Идентификатор : 7
Формат : UTF-8
Идентификатор кодека : S_TEXT/UTF8
Идентификатор кодека/Информация : UTF-8 Plain Text
Заголовок : Гоблин
Язык : Russian
Default : Нет
Forced : Нет

Текст #3
Идентификатор : 8
Формат : UTF-8
Идентификатор кодека : S_TEXT/UTF8
Идентификатор кодека/Информация : UTF-8 Plain Text
Заголовок : R5
Язык : Ukrainian
Default : Нет
Forced : Нет

Текст #4
Идентификатор : 9
Формат : UTF-8
Идентификатор кодека : S_TEXT/UTF8
Идентификатор кодека/Информация : UTF-8 Plain Text
Заголовок : Оригинал
Язык : English
Default : Нет
Forced : Нет



Скачать От.заката.до.рассвета.From.Dusk.Till.Dawn.(Роберт.Родригес).[1996.ужасы.фэнтези.боевик.триллер.комедия.криминал.BDRip-AVC].[MVO.RUS+UKR]+[Гоблин].torrent без регистрации
Золото ЗОЛОТАЯ РАЗДАЧА! СКАЧАННОЕ НЕ ЗАСЧИТЫВАЕТСЯ! Золото
Дата: Зарегистрирован   [ Тип: внутренний ] Как тут cкачать?
MAGNET ссылка
MAGNET ссылка


Скачать .torrent

11 KB

Статус: проверено DHT
Скачан: торрент - 307 раз, раздача полностью - 198 раз
Размер: 2,18 GB
Оценка:  - (Голосов: 0)
Поблагодарили: 4
Поделиться ссылкой на эту раздачу с друзьями:
В контактеFacebookОдноклассникиTwitterLivejournalМой МирLiveinternet
 

 
Показать сообщения:    


Вы не можете начинать темы
Вы не можете отвечать на сообщения
Вы не можете редактировать свои сообщения
Вы не можете удалять свои сообщения
Вы не можете голосовать в опросах
Вы не можете прикреплять файлы к сообщениям
Вы можете скачивать файлы