Loading...
Error

/ F/X - Murder by Illusion ( / Robert Mandel) [1986 ., , , , DVDRip] Dub

 
782 MB   |    :  140
1  [  0 KB/s  ]  
 

leon030982

[] 


F/X
F/X - Murder by Illusion

: 1986
:
: , ,
: 01:43:51
:
:
: / Robert Mandel
: /Bryan Brown/, /Brian Dennehy/, /Diane Venora/, /Cliff De Young/, /Mason Adams/, /Jerry Orbach/
:
- , . . : ... - , , - .

- 7,49 Mb
: DVDRip
: AVI
: HDTV > DVD5 (Custom)
: XviD
: MP3
: 25 / (624x336), 931 /, 0.178 /
: (MP3, 2 ch)
Audio #1: MP3, 2/0 ch, 112 Kbps, 48.0 KHz -










:

Format : AVI
Format/Info : Audio Video Interleave
File size : 782 MiB
Duration : 1h 43mn
Overall bit rate : 1 052 Kbps
Video
ID : 0
Format : MPEG-4 Visual
Format profile : AdvancedSimple@L5
Format settings, BVOP : Yes
Format settings, QPel : No
Format settings, GMC : No warppoints
Format settings, Matrix : Default (MPEG)
Muxing mode : Packed bitstream
Codec ID : XVID
Codec ID/Hint : XviD
Duration : 1h 43mn
Bit rate : 931 Kbps
Width : 624 pixels
Height : 336 pixels
Display aspect ratio : 1.857
Frame rate : 25.000 fps
Resolution : 24 bits
Colorimetry : 4:2:0
Scan type : Progressive
Bits/(Pixel*Frame) : 0.178
Stream size : 691 MiB (88%)
Writing library : XviD 1.2.0.dev47 (UTC 2006-11-01)
Audio
ID : 1
Format : MPEG Audio
Format version : Version 1
Format profile : Layer 3
Codec ID : 55
Codec ID/Hint : MP3
Duration : 1h 43mn
Bit rate mode : Constant
Bit rate : 112 Kbps
Channel(s) : 2 channels
Sampling rate : 48.0 KHz
Resolution : 16 bits
Stream size : 83.2 MiB (11%)
Alignment : Aligned on interleaves
Interleave, duration : 40 ms (1.00 video frame)
Interleave, preload duration : 504 ms
Writing library : LAME3.97
Encoding settings : -m j -V 4 -q 2 -lowpass 16 -b 112



..F.X.-.Murder.by.Illusion.(..Robert.Mandel).[1986.....DVDRip].Dub.torrent
  ! ! 
:   [ : ] c?
MAGNET
MAGNET


.torrent

16 KB

: DHT
: - 140 , - 33
: 782 MB
- (: 0)
: 3
:
 FacebookTwitterLivejournal Liveinternet
 

 
: