Loading...
Error

Скачать Денежный поезд / Money Train (Джозеф Рубен / Joseph Ruben) [1995 г., Боевик, триллер, HDRip] dub торрент без регистрации

 
Статистика раздачи
Размер:  745 MB   |    Скачан:  153 раза
Сидов:  1  [  0 KB/s  ]  
 
Автор Сообщение

leon030982

[] 

Денежный поезд / Money Train
Год выпуска: 1995
Страна: США
Жанр: Боевик, триллер
Продолжительность: 01:49:58.602 (158208 frames)
Перевод: Профессиональный (полное дублирование)
Русские субтитры: нет
Режиссер: Джозеф Рубен / Joseph Ruben
В ролях: Уэсли Снайпс, Вуди Харрельсон, Дженнифер Лопес, Роберт Блейк и Крис Купер
Описание: Абсолютно не похожие друг на друга сводные братья Джон и Чарли, работающие полицейскими в Нью-Йорке, вдруг начинают вести себя одинаково. Сначала они влюбляются в одну и ту же девушку - их коллегу, потом, подстрекаемые мечтой о сказочном богатстве, вместе задумывают ограбление инкассаторского поезда, каждую ночь перевозящего миллионы долларов по тоннелям нью-йоркской подземки.

Качество: HDRip
Формат: AVI
Видео кодек: XviD
Аудио кодек: МР3
Видео: 688x288 (2.39:1), 23.976 fps, XviD build 50 ~810 kbps avg, 0.17 bit/pixel
Аудио: 48 kHz, MPEG Layer 3, 2 ch, ~128.00 kbps avg
E:\001 МОИ РАЗДАЧИ\Денежный поезд 745 дуб\denezhnyi_poezd_745_[torrents.ru]_by_bm11.avi
General
Complete name : E:\001 МОИ РАЗДАЧИ\Денежный поезд 745 дуб\denezhnyi_poezd_745_[torrents.ru]_by_bm11.avi
Format : AVI
Format/Info : Audio Video Interleave
File size : 745 MiB
Duration : 1h 49mn
Overall bit rate : 947 Kbps
Writing application : VirtualDubModRus 1.5.10.2 (build 2542/release)
Writing library : VirtualDubMod build 2542/release
Video
Format : MPEG-4 Visual
Format profile : Streaming Video@L1
Format settings, BVOP : Yes
Format settings, QPel : No
Format settings, GMC : No warppoints
Format settings, Matrix : Custom
Codec ID : XVID
Codec ID/Hint : XviD
Duration : 1h 49mn
Bit rate : 811 Kbps
Width : 688 pixels
Height : 288 pixels
Display aspect ratio : 2.35
Frame rate : 23.976 fps
Resolution : 24 bits
Colorimetry : 4:2:0
Scan type : Progressive
Bits/(Pixel*Frame) : 0.171
Stream size : 638 MiB (86%)
Writing library : XviD 50
Audio
Format : MPEG Audio
Codec ID : 55
Codec ID/Hint : MP3
Duration : 1h 49mn
Bit rate : 128 Kbps
Channel(s) : 2 channels
Sampling rate : 48.0 KHz
Stream size : 100 MiB (13%)
Alignment : Aligned on interleaves
Interleave, duration : 42 ms (1.00 video frame)
Interleave, preload duration : 504 ms



Скачать Денежный.поезд.Money.Train.(Джозеф.Рубен.Joseph.Ruben).[1995.г.Боевик.триллер.HDRip].dub.torrent без регистрации
Золото ЗОЛОТАЯ РАЗДАЧА! СКАЧАННОЕ НЕ ЗАСЧИТЫВАЕТСЯ! Золото
Дата: Зарегистрирован   [ Тип: внутренний ] Как тут cкачать?
MAGNET ссылка
MAGNET ссылка


Скачать .torrent

15 KB

Статус: проверено DHT
Скачан: торрент - 153 раз, раздача полностью - 14 раз
Размер: 745 MB
Оценка:  - (Голосов: 0)
Поблагодарили: 1
Поделиться ссылкой на эту раздачу с друзьями:
В контактеFacebookОдноклассникиTwitterLivejournalМой МирLiveinternet
 

 
Показать сообщения:    


Вы не можете начинать темы
Вы не можете отвечать на сообщения
Вы не можете редактировать свои сообщения
Вы не можете удалять свои сообщения
Вы не можете голосовать в опросах
Вы не можете прикреплять файлы к сообщениям
Вы можете скачивать файлы