Loading...
Error

Скачать Беглецы / Fled (Кевин Хукс / Kevin Hooks) [1996, США, Боевик, Триллер, Мелодрама, Приключения, Криминал, HDTVRip] DUB торрент без регистрации

 
Статистика раздачи
Размер:  743 MB   |    Скачан:  145 раз

Полного источника не было: 2 месяца 8 дней

 
Автор Сообщение

leon030982

[] 

Беглецы / Fled
Страна: США
Жанр: Боевик, Триллер, Мелодрама, Приключения, Криминал
Год выпуска: 1996
Продолжительность: 01:33:45
Перевод: Профессиональный (дублированный)
Cубтитры: нет
Режиссер: Кевин Хукс / Kevin Hooks
В ролях: Лоренс Фишбёрн
Стивен Болдуин
Уилл Пэттон
Роберт Джон Бёрк
Роберт Хукс
Виктор Риверс
Дэвид Дьюкс
Кен Дженкинс
Майкл Нэйдер
Бриттни Пауэлл
Описание: Пайпер — крепкий орешек, Додж — компьютерный хакер, связь которого с 25 миллионами украденных долларов как магнит притягивает толпы наемных убийц и коррумпированных государственных чиновников. Внезапно действие принимает неожиданный оборот…
Единственное, что может спасти беглецов, это дискета, хранящая секрет дерзкого компьютерного взлома. В опасные поиски включаются: привлекательная молодая женщина, злокозненный судебный исполнитель, честный полицейский и кубинская мафия!

Качество видео: HDTVRip - Rip by AngelOfTrue
Формат видео: AVI
Видео: Xvid, 656x368, 25.00fps, 971Kbps
Аудио: MPEG Audio Layer 3, 48000Hz, stereo, 128kbps
Format : AVI
Format/Info : Audio Video Interleave
File size : 743 MiB
Duration : 1h 33mn
Overall bit rate : 1 109 Kbps
Writing application : VirtualDubMod 1.5.10.3 | www.virtualdub-fr.org || (build 2550/release)
Writing library : VirtualDubMod build 2550/release
Video
ID : 0
Format : MPEG-4 Visual
Format profile : Advanced Simple@L5
Format settings, BVOP : 1
Format settings, QPel : No
Format settings, GMC : No warppoints
Format settings, Matrix : Custom
Codec ID : XVID
Codec ID/Hint : XviD
Duration : 1h 33mn
Bit rate : 971 Kbps
Width : 656 pixels
Height : 368 pixels
Display aspect ratio : 16:9
Frame rate : 25.000 fps
Color space : YUV
Chroma subsampling : 4:2:0
Bit depth : 8 bits
Scan type : Progressive
Compression mode : Lossy
Bits/(Pixel*Frame) : 0.161
Stream size : 651 MiB (88%)
Writing library : XviD 1.2.1 (UTC 2008-12-04)
Audio
ID : 1
Format : MPEG Audio
Format version : Version 1
Format profile : Layer 3
Codec ID : 55
Codec ID/Hint : MP3
Duration : 1h 33mn
Bit rate mode : Constant
Bit rate : 128 Kbps
Channel(s) : 2 channels
Sampling rate : 48.0 KHz
Compression mode : Lossy
Stream size : 85.8 MiB (12%)
Alignment : Aligned on interleaves
Interleave, duration : 40 ms (1.00 video frame)
Interleave, preload duration : 504 ms
Writing library : LAME3.98r
Encoding settings : -m s -V 4 -q 2 -lowpass 17 -b 128

Релиз группы
:
Приятного вам просмотра!




Скачать Беглецы.Fled.(Кевин.Хукс.Kevin.Hooks).[1996.США.Боевик.Триллер.Мелодрама.Приключения.Криминал.HDTVRip].DUB.torrent без регистрации
Золото ЗОЛОТАЯ РАЗДАЧА! СКАЧАННОЕ НЕ ЗАСЧИТЫВАЕТСЯ! Золото
Дата: Зарегистрирован   [ Тип: внутренний ] Как тут cкачать?
MAGNET ссылка
MAGNET ссылка


Скачать .torrent

15 KB

Статус: проверено
Скачан: торрент - 145 раз, раздача полностью - 7 раз
Размер: 743 MB
Оценка:  - (Голосов: 0)
Поблагодарили: 0
Поделиться ссылкой на эту раздачу с друзьями:
В контактеFacebookОдноклассникиTwitterLivejournalМой МирLiveinternet
 

 
Показать сообщения:    


Вы не можете начинать темы
Вы не можете отвечать на сообщения
Вы не можете редактировать свои сообщения
Вы не можете удалять свои сообщения
Вы не можете голосовать в опросах
Вы не можете прикреплять файлы к сообщениям
Вы можете скачивать файлы