Loading...
Error

Скачать Дик Трэйси / Dick Tracy (Уоррен Битти / Warren Beatty) [1990, США, Боевик, Триллер, Мелодрама, Криминал, HDTVRip] MVO торрент без регистрации

 
Статистика раздачи
Размер:  744 MB   |    Скачан:  129 раз
Сидов:  1  [  0 KB/s  ]  
 
Автор Сообщение

leon030982

[] 

Дик Трэйси / Dick Tracy

«I'm on my way.»

Страна: США
Жанр: Боевик, Триллер, Мелодрама, Криминал
Год выпуска: 1990
Продолжительность: 01:40:42
Перевод: Профессиональный (многоголосый закадровый)
Cубтитры: Нет
Режиссер: Уоррен Битти / Warren Beatty[/url]
[b]В ролях
:
[url=http://www.kinopoisk.ru/level/4/people/1792/Уоррен Битти / Warren Beatty[/url]
Аль Пачино / Al Pacino
Мадонна / Madonna
Гленн Хедли / Glenne Headly
Чарли Корсмо / Charlie Korsmo
Дастин Хоффман / Dustin Hoffman
Чарльз Дёрнинг / Charles Durning
Пол Сорвино / Paul Sorvino
Майкл Дж. Поллард / Michael J. Pollard
Джеймс Кин / James Keane
Дополнительная информация:



Описание:
Тридцатые годы. Чикаго. В городе всем заправляет банда головорезов, которых никто не может остановить. Единственный, кому это под силу, — отважный сыщик Дик Трэйси. И он не отступит, даже если на его пути оказывается главарь мафии. Но сердце бесстрашного героя может не устоять перед чарами соблазнительной красотки...

Качество видео: HDTVRip - Rip by AngelOfTrue
Формат видео: AVI
Видео: Xvid, 656x352, 25.00fps, 895Kbps
Аудио: MPEG Audio Layer 3, 48000Hz, stereo, 128kbps
Format : AVI
Format/Info : Audio Video Interleave
File size : 744 MiB
Duration : 1h 40mn
Overall bit rate : 1 032 Kbps
Writing application : VirtualDubMod 1.5.10.3 | www.virtualdub-fr.org || (build 2550/release)
Writing library : VirtualDubMod build 2550/release
Video
ID : 0
Format : MPEG-4 Visual
Format profile : Advanced Simple@L5
Format settings, BVOP : 1
Format settings, QPel : No
Format settings, GMC : No warppoints
Format settings, Matrix : Custom
Codec ID : XVID
Codec ID/Hint : XviD
Duration : 1h 40mn
Bit rate : 895 Kbps
Width : 656 pixels
Height : 352 pixels
Display aspect ratio : 1.864
Frame rate : 25.000 fps
Color space : YUV
Chroma subsampling : 4:2:0
Bit depth : 8 bits
Scan type : Progressive
Compression mode : Lossy
Bits/(Pixel*Frame) : 0.155
Stream size : 645 MiB (87%)
Writing library : XviD 1.2.1 (UTC 2008-12-04)
Audio
ID : 1
Format : MPEG Audio
Format version : Version 1
Format profile : Layer 3
Codec ID : 55
Codec ID/Hint : MP3
Duration : 1h 40mn
Bit rate mode : Constant
Bit rate : 128 Kbps
Channel(s) : 2 channels
Sampling rate : 48.0 KHz
Compression mode : Lossy
Stream size : 92.2 MiB (12%)
Alignment : Aligned on interleaves
Interleave, duration : 40 ms (1.00 video frame)
Interleave, preload duration : 504 ms
Writing library : LAME3.98r
Encoding settings : -m s -V 4 -q 2 -lowpass 17 -b 128

Релиз группы
:
Приятного вам просмотра!




Скачать Дик.Трэйси.Dick.Tracy.(Уоррен.Битти.Warren.Beatty).[1990.США.Боевик.Триллер.Мелодрама.Криминал.HDTVRip].MVO.torrent без регистрации
Золото ЗОЛОТАЯ РАЗДАЧА! СКАЧАННОЕ НЕ ЗАСЧИТЫВАЕТСЯ! Золото
Дата: Зарегистрирован   [ Тип: внутренний ] Как тут cкачать?
MAGNET ссылка
MAGNET ссылка


Скачать .torrent

15 KB

Статус: проверено DHT
Скачан: торрент - 129 раз, раздача полностью - 4 раз
Размер: 744 MB
Оценка:  5 (Голосов: 2)
Поблагодарили: 1
Поделиться ссылкой на эту раздачу с друзьями:
В контактеFacebookОдноклассникиTwitterLivejournalМой МирLiveinternet
 

 
Показать сообщения:    


Вы не можете начинать темы
Вы не можете отвечать на сообщения
Вы не можете редактировать свои сообщения
Вы не можете удалять свои сообщения
Вы не можете голосовать в опросах
Вы не можете прикреплять файлы к сообщениям
Вы можете скачивать файлы