Loading...
Error

Скачать Пуля / Bullet (Джульен Темпл / Julien Temple) [1996, США, Криминальная драма, DVDRip-AVC] AVO (Горчаков) торрент без регистрации

 
Статистика раздачи
Размер:  745 MB   |    Скачан:  158 раз

Полного источника не было: 2 дня 6 часов

 
Автор Сообщение

leon030982

[] 

Пуля / Bullet
You only get one shot at revenge

Страна: США
Жанр: Криминальная драма
Год выпуска: 1996
Продолжительность: 01:36:06
Перевод: Авторский (одноголосый закадровый) | Василий Горчаков
Cубтитры: нет
Режиссер: Джульен Темпл / Julien Temple
В ролях: Микки Рурк
(Mickey Rourke), Тупак Шакур (Tupac Shakur), Тед Ливайн (Ted Levine), Эдриэн Броуди (Adrien Brody), Джон Инос III (John Enos III), Сюзанн Шеперд (Suzanne Shepherd), Джерри Грэйсон (Jerry Grayson), Джин Кэнфилд (Gene Canfield), Рэй Манчини (Ray Mancini)
Описание: Вы хотите узнать, что такое настоящая Америка?
Настоящая Америка — это семья Штейн, живущая в грязном пригороде. Отец — работяга, мать, живущая по своему сценарию, и три сына, каждый со своей судьбой.
Этот фильм о жизни тех, у кого нет денег на колледж, а есть только правила улиц и районов, где наркотики купить легче, чем сходить в магазин. Это простая история о парнях, у которых нет перспективы и надежды на будущее, а есть только доза, которая помогает найти цель в жизни и понять смысл происходящего.
Культовый фильм, в котором Микки Рурк сыграл одну из лучших своих ролей. Но при этом хотелось бы также отметить, что фильм не подходит для расслабляющего просмотра.

Сэмпл: http://multi-up.com/594578
Качество видео: DVDRip-AVC |
Формат видео: MKV
Видео: 656x364 (16:9); 858 Kbps; 23.976 fps; 0.150 bpp, AVC High@L4.0
Аудио: 48 kHz, AC-3, 2 channels Front: L R, ~ 224.00 kbps

x264 [info]: frame I:1203 Avg QP:16.61 size: 32843
x264 [info]: frame P:30515 Avg QP:19.41 size: 10694
x264 [info]: frame B:106534 Avg QP:23.21 size: 2367
Video
ID : 1
Format : AVC
Format/Info : Advanced Video Codec
Format profile : High@L4.0
Format settings, CABAC : Yes
Format settings, ReFrames : 8 frames
Codec ID : V_MPEG4/ISO/AVC
Duration : 1h 36mn
Bit rate : 858 Kbps
Width : 656 pixels
Height : 364 pixels
Display aspect ratio : 16:9
Frame rate : 23.976 fps
Color space : YUV
Chroma subsampling : 4:2:0
Bit depth : 8 bits
Scan type : Progressive
Bits/(Pixel*Frame) : 0.150
Stream size : 576 MiB (77%)
Title : Bullet (1996) DVDRip
Writing library : x264 core 92 r1510 33d382a
Encoding settings : cabac=1 / ref=8 / deblock=1:-1:-1 / analyse=0x3:0x113 / me=umh / subme=9 / psy=1 / psy_rd=1.00:0.10 / mixed_ref=1 / me_range=24 / chroma_me=1 / trellis=2 / 8x8dct=1 / cqm=0 / deadzone=21,11 / fast_pskip=0 / chroma_qp_offset=-3 / threads=1 / sliced_threads=0 / nr=0 / decimate=0 / interlaced=0 / constrained_intra=0 / bframes=8 / b_pyramid=2 / b_adapt=2 / b_bias=0 / direct=3 / wpredb=1 / wpredp=2 / keyint=250 / keyint_min=25 / scenecut=40 / intra_refresh=0 / rc_lookahead=60 / rc=2pass / mbtree=1 / bitrate=858 / ratetol=1.0 / qcomp=0.60 / qpmin=10 / qpmax=51 / qpstep=4 / cplxblur=20.0 / qblur=0.5 / vbv_maxrate=17500 / vbv_bufsize=14000 / ip_ratio=1.40 / aq=1:1.00 / nal_hrd=none
Language : English
Audio
ID : 2
Format : AC-3
Format/Info : Audio Coding 3
Mode extension : CM (complete main)
Codec ID : A_AC3
Duration : 1h 36mn
Bit rate mode : Constant
Bit rate : 224 Kbps
Channel(s) : 2 channels
Channel positions : Front: L R
Sampling rate : 48.0 KHz
Bit depth : 16 bits
Compression mode : Lossy
Stream size : 154 MiB (21%)
Title : AVO (Горчаков)
Language : Russian
В данном рипе представлен самый первый и любимый многими авторский перевод Василия Овидиевича Горчакова. Качество звука, мягко говоря, далеко от идеала, хотя и не противоречит правилам трекера, принятым для стерео - максимум 224 Кбит/с. Сам перевод тоже выполнен весьма вольно, но, повторюсь, именно этот перевод востребован многими. Решил не проводить дополнительных манипуляций со звуком, чтобы ещё больше не ухудшить качество. Было подозрение, что звуковая дорожка - это VHSRip (фирменное издание от "Лазер-видео интернешнл"), но автор раздачи - - утверждает, что является обладателем чистого голоса. В ещё одной раздаче - - аналогичное качество. Так что - на усмотрение проверяющего модератора.



Скачать Пуля.Bullet.(Джульен.Темпл.Julien.Temple).[1996.США.Криминальная.драма.DVDRip-AVC].AVO.(Горчаков).torrent без регистрации
Золото ЗОЛОТАЯ РАЗДАЧА! СКАЧАННОЕ НЕ ЗАСЧИТЫВАЕТСЯ! Золото
Дата: Зарегистрирован   [ Тип: внутренний ] Как тут cкачать?
MAGNET ссылка
MAGNET ссылка


Скачать .torrent

15 KB

Статус: проверено
Скачан: торрент - 158 раз, раздача полностью - 27 раз
Размер: 745 MB
Оценка:  5 (Голосов: 1)
Поблагодарили: 3
Поделиться ссылкой на эту раздачу с друзьями:
В контактеFacebookОдноклассникиTwitterLivejournalМой МирLiveinternet
 

 
Показать сообщения:    


Вы не можете начинать темы
Вы не можете отвечать на сообщения
Вы не можете редактировать свои сообщения
Вы не можете удалять свои сообщения
Вы не можете голосовать в опросах
Вы не можете прикреплять файлы к сообщениям
Вы можете скачивать файлы