Loading...
Error

Скачать Операция "С новым годом" (Александр Рогожкин) [1996 г., комедия, DVDRip] торрент без регистрации

 
Статистика раздачи
Размер:  745 MB   |    Скачан:  178 раз

Полного источника не было: 28 минут

 
Автор Сообщение

maxcross

[] 

Операция "С новым годом"
Год выпуска: 1996
Страна: Россия
Жанр: комедия
Продолжительность: 01:49:55.080 (164877 frames)
Перевод: не требуется
Русские субтитры: нет
Режиссер: Александр Рогожкин
В ролях: Алексей Булдаков, Сергей Маковецкий, Леонид Ярмольник, Виктор Сухоруков, Семен Стругачев, Виктор Бычков, Андрей Краско, Александр Романцов, Зоя Буряк, Сергей Русскин, Кирилл Ульянов, Алексей Полуян, Александр Лыков
Описание: Под Новый Год в больницу с различными переломами попадают известный генерал, 'новый русский', повздорившие супруги, автор эротических романов и другие. Но жизнь продолжается, скоро Новый Год. Генерал берет на себя командование подготовкой праздника...
Качество: DVDRip
Формат: AVI
Видео кодек: XviD
Аудио кодек: MP3
Видео: 640x368 (1.74:1), 25 fps, XviD MPEG-4 ~809 kbps avg, 0.14 bit/pixel
Audio: 48 kHz, MPEG Layer 3, 2 ch, ~128.00 kbps avg
General
Complete name : D:\001 МОИ РАЗДАЧИ\Операция с новым годом 745\operaciya_s_novym_godom_745_[torrents.ru]_by_bm11.avi
Format : AVI
Format/Info : Audio Video Interleave
File size : 745 MiB
Duration : 1h 49mn
Overall bit rate : 947 Kbps
Writing application : VirtualDubMod 1.5.10.2 (build 2540/release)
Writing library : VirtualDubMod build 2540/release
Video
Format : MPEG-4 Visual
Format profile : Streaming Video@L1
Format settings, BVOP : Yes
Format settings, QPel : No
Format settings, GMC : No warppoints
Format settings, Matrix : Custom
Codec ID : XVID
Codec ID/Hint : XviD
Duration : 1h 49mn
Bit rate : 810 Kbps
Width : 640 pixels
Height : 368 pixels
Display aspect ratio : 16/9
Frame rate : 25.000 fps
Resolution : 24 bits
Colorimetry : 4:2:0
Scan type : Progressive
Bits/(Pixel*Frame) : 0.137
Stream size : 636 MiB (85%)
Writing library : XviD 50
Audio
Format : MPEG Audio
Format version : Version 1
Format profile : Layer 3
Codec ID : 55
Codec ID/Hint : MP3
Duration : 1h 49mn
Bit rate mode : Constant
Bit rate : 128 Kbps
Channel(s) : 2 channels
Sampling rate : 48.0 KHz
Resolution : 16 bits
Stream size : 101 MiB (14%)
Alignment : Aligned on interleaves
Interleave, duration : 40 ms (1.00 video frame)
Interleave, preload duration : 504 ms
Релиз группы
:





Скачать Операция."С.новым.годом".(Александр.Рогожкин).[1996.г.комедия.DVDRip].torrent без регистрации
Золото ЗОЛОТАЯ РАЗДАЧА! СКАЧАННОЕ НЕ ЗАСЧИТЫВАЕТСЯ! Золото
Дата: Зарегистрирован   [ Тип: внутренний ] Как тут cкачать?
MAGNET ссылка
MAGNET ссылка


Скачать .torrent

15 KB

Статус: проверено DHT
Скачан: торрент - 178 раз, раздача полностью - 110 раз
Размер: 745 MB
Оценка:  - (Голосов: 0)
Поблагодарили: 2
Поделиться ссылкой на эту раздачу с друзьями:
В контактеFacebookОдноклассникиTwitterLivejournalМой МирLiveinternet
 

 
Показать сообщения:    


Вы не можете начинать темы
Вы не можете отвечать на сообщения
Вы не можете редактировать свои сообщения
Вы не можете удалять свои сообщения
Вы не можете голосовать в опросах
Вы не можете прикреплять файлы к сообщениям
Вы можете скачивать файлы