Loading...
Error

Скачать Люди мафии / Made Men (Луис Морно / Louis Morneau) [1999, США, Боевик, Комедия, DVDRip] MVO торрент без регистрации

 
Статистика раздачи
Размер:  743 MB   |    Скачан:  144 раза
Сидов:  1  [  0 KB/s  ]  
 
Автор Сообщение

leon030982

[] 

Люди мафии / Made Men
Страна: США
Жанр: Боевик, Комедия
Год выпуска: 1999
Продолжительность: 01:26:54
Перевод: Профессиональный (многоголосый закадровый)
Cубтитры: нет
Режиссер: Луис Морно / Louis Morneau
В ролях: Джеймс Белуши, Тимоти Далтон, Джейми Харрис, Дэвид О'Доннелл, Карлтон Уилборн, Ванесса Эйнджел, Стив Рэйлсбэк, Майкл Бич

Описание: Билл Вануччи, включенный в программу защиты свидетелей, в страшной спешке подпиливает пули, готовит оружие и отправляет свою жену Дебру в Лос-Анджелес. Приходят неприятные люди с оружием и собираются пытать Билла, упрекая его в том, что он предал Шкиппера. Билл говорит, что он просто украл у него деньги. Ребята хотят знать, где спрятаны деньги Шкиппера..


Качество видео: DVDRip - Исходник DVD5 Rip by AngelOfTrue
Формат видео: AVI
Видео: Xvid, 640x464, 25.00fps, 1058Kbps
Аудио: MPEG Audio Layer 3, 48000Hz, stereo, 128kbps
Format : AVI
Format/Info : Audio Video Interleave
File size : 743 MiB
Duration : 1h 26mn
Overall bit rate : 1 196 Kbps
Writing application : VirtualDubMod 1.5.10.3 | www.virtualdub-fr.org || (build 2550/release)
Writing library : VirtualDubMod build 2550/release
Video
ID : 0
Format : MPEG-4 Visual
Format profile : Advanced Simple@L5
Format settings, BVOP : 1
Format settings, QPel : No
Format settings, GMC : No warppoints
Format settings, Matrix : Custom
Codec ID : XVID
Codec ID/Hint : XviD
Duration : 1h 26mn
Bit rate : 1 058 Kbps
Width : 640 pixels
Height : 464 pixels
Display aspect ratio : 1.379
Frame rate : 25.000 fps
Color space : YUV
Chroma subsampling : 4:2:0
Bit depth : 8 bits
Scan type : Progressive
Compression mode : Lossy
Bits/(Pixel*Frame) : 0.142
Stream size : 658 MiB (88%)
Writing library : XviD 1.2.1 (UTC 2008-12-04)
Audio
ID : 1
Format : MPEG Audio
Format version : Version 1
Format profile : Layer 3
Codec ID : 55
Codec ID/Hint : MP3
Duration : 1h 26mn
Bit rate mode : Constant
Bit rate : 128 Kbps
Channel(s) : 2 channels
Sampling rate : 48.0 KHz
Compression mode : Lossy
Stream size : 79.6 MiB (11%)
Alignment : Aligned on interleaves
Interleave, duration : 40 ms (1.00 video frame)
Interleave, preload duration : 504 ms
Writing library : LAME3.98r
Encoding settings : -m s -V 4 -q 2 -lowpass 17 -b 128

Релиз группы
:
Приятного вам просмотра!




Скачать Люди.мафии.Made.Men.(Луис.Морно.Louis.Morneau).[1999.США.Боевик.Комедия.DVDRip].MVO.torrent без регистрации
Золото ЗОЛОТАЯ РАЗДАЧА! СКАЧАННОЕ НЕ ЗАСЧИТЫВАЕТСЯ! Золото
Дата: Зарегистрирован   [ Тип: внутренний ] Как тут cкачать?
MAGNET ссылка
MAGNET ссылка


Скачать .torrent

15 KB

Статус: проверено DHT
Скачан: торрент - 144 раз, раздача полностью - 15 раз
Размер: 743 MB
Оценка:  - (Голосов: 0)
Поблагодарили: 1
Поделиться ссылкой на эту раздачу с друзьями:
В контактеFacebookОдноклассникиTwitterLivejournalМой МирLiveinternet
 

 
Показать сообщения:    


Вы не можете начинать темы
Вы не можете отвечать на сообщения
Вы не можете редактировать свои сообщения
Вы не можете удалять свои сообщения
Вы не можете голосовать в опросах
Вы не можете прикреплять файлы к сообщениям
Вы можете скачивать файлы