Loading...
Error

Скачать Закат / Sunset (Блейк Эдвардс / Blake Edwards) [1988, США, Боевик, триллер, комедия, криминал, вестерн, DVDRip] [MVO] торрент без регистрации

 
Статистика раздачи
Размер:  745 MB   |    Скачан:  149 раз
Сидов:  1  [  0 KB/s  ]  
 
Автор Сообщение

leon030982

[] 


Закат / Sunset
Страна: США
Жанр: Боевик, триллер, комедия, криминал, вестерн
Год выпуска: 1988
Продолжительность: 1:42:42
Перевод: Профессиональный (многоголосый закадровый) [ОРТ]
Cубтитры: Нет
Режиссер: Блейк Эдвардс / Blake Edwards
В ролях: Брюс Уиллис
, Джеймс Гарнер, Малкольм МакДауэлл, Мэриэл Хемингуэй, Кэтлин Куинлен, Дженнифер Эдвардс, Патриция Ходж, Ричард Брэдфорд, М. Эммет Уолш, Джо Даллесандро и др.
Описание: Трудно быть легендарным борцом с преступностью, если тебя решили сделать кинозвездой, и твою роль теперь исполняет самовлюбленный и заносчивый голливудский пижон. Знаменитый шериф дикого запада Уайатт Эрп раздваивается: на экране - он бравый молодец в исполнении популярного актера, а в реальной жизни - настоящий, но не очень знаменитый герой. Когда же Голливуд потрясает одно из самых шокирующих и таинственных убийств, два Уайатта Эрпа объединяются...
Бюджет: $16 000 000
Сборы в США: $4 594 452
Рейтинг MPAA: R (Лицам до 17 лет обязательно присутствие взрослого!)

Качество видео: DVDRip
Исходник:
Формат видео: AVI
Видео: 640x272 (2.35:1), 25 fps, XviD build 64 ~876 kbps avg, 0.20 bit/pixel
Аудио: 48 kHz, MPEG Layer 3, 2 ch, ~128.00 kbps avg
Размер: 745.37 Mb ( 781 572 096 bytes ) - 1/6 DVD
General
Complete name : C:\Sunset DVD5 PAL\VIDEO_TS\Sunset_DVDRip_MVO.avi
Format : AVI
Format/Info : Audio Video Interleave
File size : 745 MiB
Duration : 1h 42mn
Overall bit rate : 1 015 Kbps
Writing application : VirtualDubMod 1.5.10.2 (build 2540/release)
Writing library : VirtualDubMod build 2540/release
Video
ID : 0
Format : MPEG-4 Visual
Format profile : Advanced Simple@L5
Format settings, BVOP : 1
Format settings, QPel : No
Format settings, GMC : No warppoints
Format settings, Matrix : Custom
Codec ID : XVID
Codec ID/Hint : XviD
Duration : 1h 42mn
Bit rate : 877 Kbps
Width : 640 pixels
Height : 272 pixels
Display aspect ratio : 2.35:1
Frame rate : 25.000 fps
Color space : YUV
Chroma subsampling : 4:2:0
Bit depth : 8 bits
Scan type : Progressive
Compression mode : Lossy
Bits/(Pixel*Frame) : 0.202
Stream size : 644 MiB (86%)
Writing library : XviD 64
Audio
ID : 1
Format : MPEG Audio
Format version : Version 1
Format profile : Layer 3
Mode : Joint stereo
Mode extension : MS Stereo
Codec ID : 55
Codec ID/Hint : MP3
Duration : 1h 42mn
Bit rate mode : Constant
Bit rate : 128 Kbps
Channel(s) : 2 channels
Sampling rate : 48.0 KHz
Compression mode : Lossy
Stream size : 94.0 MiB (13%)
Alignment : Aligned on interleaves
Interleave, duration : 40 ms (1.00 video frame)
Interleave, preload duration : 504 ms



Скачать Закат.Sunset.(Блейк.Эдвардс.Blake.Edwards).[1988.США.Боевик.триллер.комедия.криминал.вестерн.DVDRip].[MVO].torrent без регистрации
Золото ЗОЛОТАЯ РАЗДАЧА! СКАЧАННОЕ НЕ ЗАСЧИТЫВАЕТСЯ! Золото
Дата: Зарегистрирован   [ Тип: внутренний ] Как тут cкачать?
MAGNET ссылка
MAGNET ссылка


Скачать .torrent

30 KB

Статус: проверено DHT
Скачан: торрент - 149 раз, раздача полностью - 22 раз
Размер: 745 MB
Оценка:  - (Голосов: 0)
Поблагодарили: 1
Поделиться ссылкой на эту раздачу с друзьями:
В контактеFacebookОдноклассникиTwitterLivejournalМой МирLiveinternet
 

 
Показать сообщения:    


Вы не можете начинать темы
Вы не можете отвечать на сообщения
Вы не можете редактировать свои сообщения
Вы не можете удалять свои сообщения
Вы не можете голосовать в опросах
Вы не можете прикреплять файлы к сообщениям
Вы можете скачивать файлы