Loading...
Error

Скачать Ты / Toi (Франсуа Делисл / Francois Delisle) [2007, драма, DVDRip] [Субтитры] торрент без регистрации

 
Статистика раздачи
Размер:  1,13 GB   |    Скачан:  118 раз

Полного источника не было: 19 часов

 
Автор Сообщение

Jenek

[] 

Ты / Toi
Страна: Канада (Квебек)
Жанр: драма
Год выпуска: 2007
Продолжительность: 01:27:08
Перевод: Субтитры (by sonnyb)
Cубтитры: русские
Оригинальная аудиодорожка: французский
Режиссер: Франсуа Делисл / Francois Delisle
В ролях: Анна-Мари Кадьо, Лоран Люка, Марк Беланд, Рафаэль Дюри
Описание: Задыхаясь в браке без любви отчаявшаяся женщина желает почувствовать пик истинной страсти. Скучная домохозяйка откажется от дома и карьеры, чтобы быть с любимым человеком, который не боится избегать общества в стремлении к свободе творчества.
IMDb: 6.4/10 from 48 users
Качество видео: DVDRip
Формат видео: AVI
Видео: 720x320 (2.25:1), 23.976 fps, XviD MPEG-4 ~1396 kbps avg, 0.25 bit/pixel
Аудио: 48 kHz, AC3 Dolby Digital, 3/2 (L,C,R,l,r) + LFE ch, ~448 kbps
Формат субтитров: softsub (SRT)
1
00:00:55,422 --> 00:01:00,553
~ Ты ~
2
00:01:54,647 --> 00:01:57,741
Ты покормила Ману?
Он сделал своё домашнее задание?
3
00:01:57,851 --> 00:02:00,820
Если смогу вырваться, то
тут же буду дома.
4
00:02:00,920 --> 00:02:03,354
Его отец заезжал?
5
00:02:03,456 --> 00:02:05,788
Я сейчас буду. Пока.
6
00:02:05,892 --> 00:02:06,859
Спасибо.
7
00:02:22,075 --> 00:02:23,542
Извини!
8
00:02:24,577 --> 00:02:27,341
Я тоже существую!
9
00:02:29,149 --> 00:02:31,174
Твой муж уже ушёл.
10
00:02:31,284 --> 00:02:33,752
- Вы куда?
- Возьмём фильм в прокате.
11
00:02:33,853 --> 00:02:35,821
Он не ляжет поздно спать.
12
00:02:38,224 --> 00:02:40,692
Элуиза, ты сможешь
понянчить его завтра вечером?
13
00:03:40,787 --> 00:03:43,585
"С днём рожденья, дорогой Марк!"
14
00:04:07,113 --> 00:04:08,580
За тебя, Марк!
15
00:04:08,681 --> 00:04:10,148
За меня!
16
00:04:15,255 --> 00:04:16,813
Ты видела Ману?
17
00:04:16,923 --> 00:04:18,823
Да, я заходила домой.
18
00:04:18,925 --> 00:04:21,086
- Я ждал тебя.
- Я знаю.
19
00:04:21,194 --> 00:04:23,628
Встреча с МакКензи разве не в 3 была?
20
00:04:23,730 --> 00:04:25,288
Где ты была?
21
00:04:30,536 --> 00:04:33,437
- И что он сказал?
- Он говорит, что предложения твоего сайта отличные.
22
00:04:33,539 --> 00:04:36,133
Нашего сайта.
Мы работали над ним вместе.
23
00:04:39,178 --> 00:04:40,873
Марк!
24
00:05:28,361 --> 00:05:30,727
У меня есть подруга, она психиатр.
25
00:05:30,830 --> 00:05:33,025
Она рассказала мне эту
историю очень давно.
26
00:05:33,132 --> 00:05:35,100
Женщина и мужчина
27
00:05:35,201 --> 00:05:39,604
приходили к ней в одну неделю,
но, держа это в секрете друг от друга.
28
00:05:39,706 --> 00:05:41,833
Женщина была первой.
29
00:05:41,941 --> 00:05:43,909
Она рассказала моей подруге:
30
00:05:44,010 --> 00:05:47,468
"Я встретила мужчину, который меня привлекает,
он мне очень нравится.
Видео
Идентификатор : 0
Формат : MPEG-4 Visual
Профиль формата : Simple@L3
Параметр BVOP формата : Нет
Параметр QPel формата : Нет
Параметр GMC формата : Без точки перехода
Параметр матрицы формата : Default (H.263)
Идентификатор кодека : XVID
Идентификатор кодека/Подсказка : XviD
Продолжительность : 1 ч. 27 м.
Битрейт : 1397 Кбит/сек
Ширина : 720 пикс.
Высота : 320 пикс.
Соотношение сторон : 2,25:1
Частота кадров : 23,976 кадр/сек
Цветовое пространство : YUV
Подвыборка цветности : 4:2:0
Битовая глубина : 8 бит
Тип развёртки : Прогрессивная
Метод сжатия : С потерями
Бит/(Пиксели*Кадры) : 0.253
Размер потока : 870 Мбайт (75%)
Библиотека кодирования : XviD 1.2.0.dev47 (UTC 2006-11-01)
Аудио
Идентификатор : 1
Формат : AC-3
Формат/Информация : Audio Coding 3
Расширение режима : CM (complete main)
Идентификатор кодека : 2000
Продолжительность : 1 ч. 27 м.
Вид битрейта : Постоянный
Битрейт : 448 Кбит/сек
Каналы : 6 каналов
Расположение каналов : Front: L C R, Side: L R, LFE
Частота : 48,0 КГц
Битовая глубина : 16 бит
Метод сжатия : С потерями
Размер потока : 279 Мбайт (24%)
Выравнивание : Разделение по промежуткам
Продолжительность промежутка : 83 мс. (2,00 видеокадра)
Время предзагрузки промежутка : 500 ms



Скачать Ты.Toi.(Франсуа.Делисл.Francois.Delisle).[2007.драма.DVDRip].[Субтитры].torrent без регистрации
Золото ЗОЛОТАЯ РАЗДАЧА! СКАЧАННОЕ НЕ ЗАСЧИТЫВАЕТСЯ! Золото
Дата: Зарегистрирован   [ Тип: внутренний ] Как тут cкачать?
MAGNET ссылка
MAGNET ссылка


Скачать .torrent

12 KB

Статус: проверено
Скачан: торрент - 118 раз, раздача полностью - 16 раз
Размер: 1,13 GB
Оценка:  - (Голосов: 0)
Поблагодарили: 1
Поделиться ссылкой на эту раздачу с друзьями:
В контактеFacebookОдноклассникиTwitterLivejournalМой МирLiveinternet
 

 
Показать сообщения:    


Вы не можете начинать темы
Вы не можете отвечать на сообщения
Вы не можете редактировать свои сообщения
Вы не можете удалять свои сообщения
Вы не можете голосовать в опросах
Вы не можете прикреплять файлы к сообщениям
Вы можете скачивать файлы