Loading...
Error

Скачать Мужской сезон: Бархатная революция (Олег Степченко) [2005, боевик, драма, криминал, DVDRip] Театральная версия торрент без регистрации

 
Статистика раздачи
Размер:  748 MB   |    Скачан:  172 раза

Полного источника не было: 8 месяцев

 
Автор Сообщение

Jenek

[] 

Мужской сезон: Бархатная революция / Театральная версия
Жанр: боевик, драма, криминал
Год выпуска: 2005
Продолжительность: 01:51:22
Режиссёр: Олег Степченко
В ролях: Алексей Кравченко, Александр Карпов, Михаил Горевой, Василий Ливанов, Арнис Лицитис, Роман Радов, Олег Тактаров, Виктория Толстоганова, Анна Чурина, Алексей Петрухин
Описание: Фильм, действие которого происходит в обоих полушариях земного шара при участии президентов, боссов наркокартелей, агентов госбезопасности и могущественных секретных организаций, начинается с шокирующей, но вполне домашней разборки. Рядовой наркобарон при помощи клюшки для гольфа воспитывает своего подручного, вся вина которого заключается в том, что его мобильный телефон изъял, причем незаконно, один не в меру трудолюбивый агент госбезопасности. Осознавая несоизмеримость наказания и степени своей вины, изуродованный гангстер первым из героев фильма задается вопросом: что мы знаем о мире, в котором живем? Но поразмышлять об этом ему уже не придется. Искать ответ на этот вопрос невольно придется тому самому агенту, который покусился на чужую собственность, не особенно задумываясь о том, что мобильный телефон может быть опасней атомной бомбы. Скорость последующих событий не уступает их увлекательности. Шифры, разгадки, преследования, новые трупы… Тайна нешуточная: раскрытие ее порушит все представления современного человека о том, для чего может делаться международная политика.


Качество видео: DVDRip
Формат видео: AVI
Видео: 704x304 (2.32:1), 25 fps, XviD build 64 ~800 kbps avg, 0.15 bit/pixel
Аудио: 48 kHz, MPEG Layer 3, 2 ch, ~128.00 kbps avg
General
Complete name : D:\Релизы\(2005) Мужской сезон - Бархатная революция (Театральная версия).avi
Format : AVI
Format/Info : Audio Video Interleave
File size : 748 MiB
Duration : 1h 51mn
Overall bit rate : 939 Kbps
Writing application : VirtualDubMod 1.5.10.3 | www.virtualdub-fr.org || (build 2550/release)
Writing library : VirtualDubMod build 2550/release
Video
ID : 0
Format : MPEG-4 Visual
Format profile : Advanced Simple@L5
Format settings, BVOP : 1
Format settings, QPel : No
Format settings, GMC : No warppoints
Format settings, Matrix : Custom
Codec ID : XVID
Codec ID/Hint : XviD
Duration : 1h 51mn
Bit rate : 801 Kbps
Width : 704 pixels
Height : 304 pixels
Display aspect ratio : 2.35:1
Frame rate : 25.000 fps
Color space : YUV
Chroma subsampling : 4:2:0
Bit depth : 8 bits
Scan type : Progressive
Compression mode : Lossy
Bits/(Pixel*Frame) : 0.150
Stream size : 638 MiB (85%)
Writing library : XviD 64
Audio
ID : 1
Format : MPEG Audio
Format version : Version 1
Format profile : Layer 3
Mode : Joint stereo
Mode extension : MS Stereo
Codec ID : 55
Codec ID/Hint : MP3
Duration : 1h 51mn
Bit rate mode : Constant
Bit rate : 128 Kbps
Channel(s) : 2 channels
Sampling rate : 48.0 KHz
Compression mode : Lossy
Stream size : 102 MiB (14%)
Alignment : Aligned on interleaves
Interleave, duration : 40 ms (1.00 video frame)
Interleave, preload duration : 504 ms
Writing library : LAME3.98r
Encoding settings : -m j -V 4 -q 2 -lowpass 17 -b 128



Скачать Мужской.сезон.Бархатная.революция.(Олег.Степченко).[2005.боевик.драма.криминал.DVDRip].Театральная.версия.torrent без регистрации
Золото ЗОЛОТАЯ РАЗДАЧА! СКАЧАННОЕ НЕ ЗАСЧИТЫВАЕТСЯ! Золото
Дата: Зарегистрирован   [ Тип: внутренний ] Как тут cкачать?
MAGNET ссылка
MAGNET ссылка


Скачать .torrent

15 KB

Статус: проверено
Скачан: торрент - 172 раз, раздача полностью - 20 раз
Размер: 748 MB
Оценка:  5 (Голосов: 1)
Поблагодарили: 2
Поделиться ссылкой на эту раздачу с друзьями:
В контактеFacebookОдноклассникиTwitterLivejournalМой МирLiveinternet
 

 
Показать сообщения:    


Вы не можете начинать темы
Вы не можете отвечать на сообщения
Вы не можете редактировать свои сообщения
Вы не можете удалять свои сообщения
Вы не можете голосовать в опросах
Вы не можете прикреплять файлы к сообщениям
Вы можете скачивать файлы