Loading...
Error

Скачать Фред Клаус, брат Санты / Fred Claus (Дэвид Добкин / David Dobkin) [2007,комедия, семейный, HDRip] [DUB] торрент без регистрации

 
Статистика раздачи
Размер:  2,18 GB   |    Скачан:  114 раз

Полного источника не было: 3 года 11 месяцев

 
Автор Сообщение

Jenek

[] 

Фред Клаус, брат Санты / Fred Claus
Страна: США
Жанр: комедия, семейный
Год выпуска: 2007
Продолжительность: 01:55:33
Перевод: Профессиональный (дублированный)
+ Оригинал
Cубтитры: нет
Режиссер: Дэвид Добкин / David Dobkin
В ролях: Винс Вон, Пол Джиаматти, Джон Майкл Хиггинс, Миранда Ричардсон, Рэйчел Уайс, Кэти Бейтс, Тревор Пикок, Элизабет Бэнкс, Кристиан Хэнсен
Описание: Комедия о Фреде Клаусе, брате Санты, который является его полной противоположностью. Фред рос в святой тени своего брата Ника и, в конце концов, превратился в брюзгу, потерявшего веру в Рождество. Однажды в декабре Фред летит на Северный Полюс (первым классом на оленьей упряжке) и обнаруживает, что Ник попал в беду, поскольку эксперт по эффективности решает навсегда упразднить Рождество! Фред спасает Рождество и вновь обретает вкус к семье...
Сэмпл: http://sendfile.su/493620
Качество видео: HDRip
Формат видео: AVI
Видео: 720x304 (2.37:1), 23.976 fps, XviD build 64 ~1921 kbps avg, 0.37 bit/pixel
Аудио 1: 48 kHz, AC3 Dolby Digital, 3/2 (L,C,R,l,r) + LFE ch, ~384 kbps |Rus|
Аудио 2: 48 kHz, AC3 Dolby Digital, 3/2 (L,C,R,l,r) + LFE ch, ~384 kbps |Eng|
General
Complete name : C:\Fred.Claus.avi
Format : AVI
Format/Info : Audio Video Interleave
Format profile : OpenDML
File size : 2.18 GiB
Duration : 1h 55mn
Overall bit rate : 2 706 Kbps
Writing application : VirtualDubMod 1.5.10.2 (build 2540/release)
Writing library : VirtualDubMod build 2540/release
Video
ID : 0
Format : MPEG-4 Visual
Format profile : Advanced Simple@L5
Format settings, BVOP : 1
Format settings, QPel : No
Format settings, GMC : No warppoints
Format settings, Matrix : Custom
Codec ID : XVID
Codec ID/Hint : XviD
Duration : 1h 55mn
Bit rate : 1 921 Kbps
Width : 720 pixels
Height : 304 pixels
Display aspect ratio : 2.35:1
Frame rate : 23.976 fps
Color space : YUV
Chroma subsampling : 4:2:0
Bit depth : 8 bits
Scan type : Progressive
Compression mode : Lossy
Bits/(Pixel*Frame) : 0.366
Stream size : 1.55 GiB (71%)
Writing library : XviD 64
Audio #1
ID : 1
Format : AC-3
Format/Info : Audio Coding 3
Mode extension : CM (complete main)
Codec ID : 2000
Duration : 1h 55mn
Bit rate mode : Constant
Bit rate : 384 Kbps
Channel(s) : 6 channels
Channel positions : Front: L C R, Side: L R, LFE
Sampling rate : 48.0 KHz
Bit depth : 16 bits
Compression mode : Lossy
Stream size : 317 MiB (14%)
Alignment : Split accross interleaves
Interleave, duration : 42 ms (1.00 video frame)
Interleave, preload duration : 500 ms
Audio #2
ID : 2
Format : AC-3
Format/Info : Audio Coding 3
Mode extension : CM (complete main)
Codec ID : 2000
Duration : 1h 55mn
Bit rate mode : Constant
Bit rate : 384 Kbps
Channel(s) : 6 channels
Channel positions : Front: L C R, Side: L R, LFE
Sampling rate : 48.0 KHz
Bit depth : 16 bits
Compression mode : Lossy
Stream size : 317 MiB (14%)
Alignment : Split accross interleaves
Interleave, duration : 42 ms (1.00 video frame)
Interleave, preload duration : 500 ms



Скачать Фред.Клаус.брат.Санты.Fred.Claus.(Дэвид.Добкин.David.Dobkin).[2007.комедия.семейный.HDRip].[DUB].torrent без регистрации
Золото ЗОЛОТАЯ РАЗДАЧА! СКАЧАННОЕ НЕ ЗАСЧИТЫВАЕТСЯ! Золото
Дата: Зарегистрирован   [ Тип: внутренний ] Как тут cкачать?
MAGNET ссылка
MAGNET ссылка


Скачать .torrent

11 KB

Статус: проверено
Скачан: торрент - 114 раз, раздача полностью - 4 раз
Размер: 2,18 GB
Оценка:  4 (Голосов: 1)
Поблагодарили: 1
Поделиться ссылкой на эту раздачу с друзьями:
В контактеFacebookОдноклассникиTwitterLivejournalМой МирLiveinternet
 

 
Показать сообщения:    


Вы не можете начинать темы
Вы не можете отвечать на сообщения
Вы не можете редактировать свои сообщения
Вы не можете удалять свои сообщения
Вы не можете голосовать в опросах
Вы не можете прикреплять файлы к сообщениям
Вы можете скачивать файлы