Loading...
Error

Скачать Рождественские каникулы в Сент Морице 91 / Vacanze di Natale '91 (Энрико Олдоини / Enrico Oldoini) [1991, комедия, DVDRip] [AVO] торрент без регистрации

 
Статистика раздачи
Размер:  1,46 GB   |    Скачан:  170 раз
Сидов:  1  [  0 KB/s  ]  
 
Автор Сообщение

Jenek

[] 

Рождественские каникулы в Сент Морице 91 / Vacanze di Natale '91
Год выпуска: 1991
Страна: Италия
Жанр: комедия
Продолжительность: 01:51:27
Перевод: Авторский (одноголосый)- А.Мудров
Режиссер: Энрико Олдоини / Enrico Oldoini
Сценарий: Родольфо Сонего / Rodolfo Sonego, Альберто Сорди / Alberto Sordi, Энрико Олдоини / Enrico Oldoini, Джованни Веронези / Giovanni Veronesi, Лилиана Бетти / Liliane Betti
Продюсер: Аурелио Де Лаурентис / Aurelio De Laurentiis, Маурицио Амати / Maurizio Amati, Луиджи Де Лаурентис / Luigi De Laurentiis
Оператор: Серджо Сальвати / Sergio Salvati
Композитор: Мануэль Де Сика / Manuel De Sica, Джанни Дель’Орсо / Gianni Dell'Orso
В ролях: Орнелла Мути, Кристиан Де Сика (Enzo), Массимо Болди (Mimmo), Нино Фрассика (Rino), Эцио Греджо (Leopoldo), Альберто Сорди (Sabino), Надя Ринальди (Fernanda), Франческо Бениньо (Salvatore), Конни Нильсен (Brunilde, Vanessa), Клаудио Гора (Onorevele Mariotti), Керри Хаббард (Ingrid Lambertoni), Geppy Geijeses (Filippo)
Мировая премьера: 20 декабря 1991
Описание: Снова зима и снова Сент-Мориц ставит курьёзные вопросы:Сколько женщин нужно «голубому», если он «срывается с цепи». Занимаются ли призраки любовью или они как ракушки? Нужно ли мужчине в одиночестве надевать презерватив? И другие...
Рейтинг
kinopoisk.ru:
(7.357)
imdb.com: 3.30 (163)
Качество: DVDRip
Формат: AVI
Видео: XviD; 720x304 (2.35:1); 1732 Kbps; 25 fps; 0,317 bpp
Аудио: AC3; 128 Kbps; CBR; 2 ch
General
Complete name : F:\rutracker\Рождественские каникулы - 91.1991.DVDRip.avi
Format : AVI
Format/Info : Audio Video Interleave
File size : 1.46 GiB
Duration : 1h 51mn
Overall bit rate : 1 871 Kbps
Writing application : VirtualDubModRus 1.5.10.2 (build 2542/release)
Writing library : VirtualDubMod build 2542/release
Video
ID : 0
Format : MPEG-4 Visual
Format profile : Advanced Simple@L5
Format settings, BVOP : Yes
Format settings, QPel : No
Format settings, GMC : No warppoints
Format settings, Matrix : Custom
Codec ID : XVID
Codec ID/Hint : XviD
Duration : 1h 51mn
Bit rate : 1 733 Kbps
Width : 720 pixels
Height : 304 pixels
Display aspect ratio : 2.35:1
Frame rate : 25.000 fps
Color space : YUV
Chroma subsampling : 4:2:0
Bit depth : 8 bits
Scan type : Progressive
Bits/(Pixel*Frame) : 0.317
Stream size : 1.35 GiB (93%)
Writing library : XviD 64
Audio
ID : 1
Format : AC-3
Format/Info : Audio Coding 3
Mode extension : CM (complete main)
Codec ID : 2000
Duration : 1h 51mn
Bit rate mode : Constant
Bit rate : 128 Kbps
Channel(s) : 2 channels
Channel positions : Front: L R
Sampling rate : 48.0 KHz
Bit depth : 16 bits
Stream size : 102 MiB (7%)
Alignment : Split accross interleaves
Interleave, duration : 40 ms (1.00 video frame)
Interleave, preload duration : 500 ms



Скачать Рождественские.каникулы.в.Сент.Морице.91.Vacanze.di.Natale.'91.(Энрико.Олдоини.Enrico.Oldoini).[1991.комедия.DVDRip].[AVO].torrent без регистрации
Золото ЗОЛОТАЯ РАЗДАЧА! СКАЧАННОЕ НЕ ЗАСЧИТЫВАЕТСЯ! Золото
Дата: Зарегистрирован   [ Тип: внутренний ] Как тут cкачать?
MAGNET ссылка
MAGNET ссылка


Скачать .torrent

15 KB

Статус: проверено DHT
Скачан: торрент - 170 раз, раздача полностью - 24 раз
Размер: 1,46 GB
Оценка:  - (Голосов: 0)
Поблагодарили: 2
Поделиться ссылкой на эту раздачу с друзьями:
В контактеFacebookОдноклассникиTwitterLivejournalМой МирLiveinternet
 

 
Показать сообщения:    


Вы не можете начинать темы
Вы не можете отвечать на сообщения
Вы не можете редактировать свои сообщения
Вы не можете удалять свои сообщения
Вы не можете голосовать в опросах
Вы не можете прикреплять файлы к сообщениям
Вы можете скачивать файлы