Loading...
Error

Скачать Ёлка (Геннадий Новиков) [2007, драма,семейное кино, TVRip] торрент без регистрации

 
Статистика раздачи
Размер:  2,31 GB   |    Скачан:  107 раз

Полного источника не было: 4 месяца 29 дней

 
Автор Сообщение

Jenek

[] 

Ёлка
Жанр: драма, семейное кино
Год выпуска: 2007
Продолжительность: 01:16:04
Режиссёр: Геннадий Новиков
В ролях: Григорий Беляев, Зинаида Шарко, Сергей Дрейден (Донцов), Ирина Горячева, Виктор Кривонос, Юля Вешкурцева, Валерий Дегтярь, Наталья Ткаченко
Описание: По мотивам рассказа А. Аверченко "Продувной мальчишка".

Девятилетний мальчик становится обладателем бесценного камня, который он хочет продать, чтобы устроить своей матери новогодний праздник — « Ёлку ». Мы становимся свидетелями парадоксальных поступков, которые совершают персонажи фильма под влиянием этого камня. Время и место действия фильма происходят в один из последних предновогодних дней на нашей Планете
Доп. информация:
Сценарист: Геннадий Новиков
Оператор: Антон Вербин
Композитор: Игорь Воротников
Производство: Кинокомпания "РУЧЕРП"

КИНО-ТЕАТР.ru
Указана неверная информация по актёрам и году выхода фильма на обоих сайтах.
Качество видео: TVRip
Формат видео: MPEG2
Видео: MPEG2 Video 720x576 (4:3) 25.00fps 4067 Кбит/сек
Аудио: MPEG Audio 48000Hz stereo192kbps
Общее
Полное имя : D:\TORENT4\ELKA.2007.mpg
Формат : MPEG-PS
Размер файла : 2,31 Гбайт
Продолжительность : 1 ч. 16 м.
Общий поток : 4345 Кбит/сек
Видео
Идентификатор : 224 (0xE0)
Формат : MPEG Video
Версия формата : Version 2
Профиль формата : Main@Main
Параметр BVOP формата : Да
Параметр матрицы формата : По умолчанию
Продолжительность : 1 ч. 16 м.
Вид битрейта : Переменный
Битрейт : 4067 Кбит/сек
Номинальный битрейт : 9282 Кбит/сек
Ширина : 720 пикс.
Высота : 576 пикс.
Соотношение сторон : 4:3
Частота кадров : 25,000 кадр/сек
Стандарт вещания : PAL
Цветовое пространство : YUV
Подвыборка цветности : 4:2:0
Битовая глубина : 8 бит
Тип развёртки : Чересстрочная
Порядок развёртки : Верхнее поле первое
Метод сжатия : С потерями
Бит/(Пиксели*Кадры) : 0.392
Размер потока : 2,16 Гбайт (94%)
Аудио
Идентификатор : 192 (0xC0)
Формат : MPEG Audio
Версия формата : Version 1
Профиль формата : Layer 2
Продолжительность : 1 ч. 16 м.
Вид битрейта : Постоянный
Битрейт : 192 Кбит/сек
Каналы : 2 канала
Частота : 48,0 КГц
Метод сжатия : С потерями
Размер потока : 104 Мбайт (4%)



Скачать Ёлка.(Геннадий.Новиков).[2007.драма.семейное.кино.TVRip].torrent без регистрации
Золото ЗОЛОТАЯ РАЗДАЧА! СКАЧАННОЕ НЕ ЗАСЧИТЫВАЕТСЯ! Золото
Дата: Зарегистрирован   [ Тип: внутренний ] Как тут cкачать?
MAGNET ссылка
MAGNET ссылка


Скачать .torrent

12 KB

Статус: проверено
Скачан: торрент - 107 раз, раздача полностью - 8 раз
Размер: 2,31 GB
Оценка:  - (Голосов: 0)
Поблагодарили: 1
Поделиться ссылкой на эту раздачу с друзьями:
В контактеFacebookОдноклассникиTwitterLivejournalМой МирLiveinternet
 

 
Показать сообщения:    


Вы не можете начинать темы
Вы не можете отвечать на сообщения
Вы не можете редактировать свои сообщения
Вы не можете удалять свои сообщения
Вы не можете голосовать в опросах
Вы не можете прикреплять файлы к сообщениям
Вы можете скачивать файлы