Loading...
Error

Скачать Правила съема: Метод Хитча / Hitch (Энди Теннант/ Andy Tennant) [2005, мелодрама, комедия, HDRip] торрент без регистрации

 
Статистика раздачи
Размер:  745 MB   |    Скачан:  144 раза
Сидов:  1  [  0 KB/s  ]  
 
Автор Сообщение

Marsianka

[] 

Информация о фильме
Название: Правила съема: Метод Хитча
Оригинальное название: Hitch
Год выхода: 2005
Жанр: мелодрама, комедия
Режиссер: Энди Теннант/ Andy Tennant
В ролях: Уилл Смит /Will Smith/, Ева Мендес /Eva Mendes/, Кевин Джеймс /Kevin James/, Джули Энн Эмери /Julie Ann Emery/, Робин Ли /Robinne Lee/, Амбер Валетта /Amber Valletta/

О фильме:
Алекс «Хитч» Хитченс легендарный нью-йоркский «доктор-сват&raquo. Множеству мужчин он помог добиться взаимности от женщин их мечты. Хитч не бескорыстен, он получает за свою работу гонорар, но предусмотрительно хранит в тайне свой способ зарабатывать на жизнь.

Новый клиент Хитча Альберт, робкий бухгалтер, без ума влюблённый в гламурную звезду Аллегру Коул. Для Хитча этот случай должен стать вершиной его карьеры. Однако, работая над этим делом, он вдруг встречает достойного противника в лице эффектной и проницательной Сары Мелас, журналистки, ведущей колонку светских сплетен, и следящей за каждым шагом Аллегры.

Профессиональный холостяк Хитч внезапно обнаруживает, что по уши влюблён в Сару, которая, в свою очередь, близка к сенсационному открытию: она только что вышла на след таинственного манхэттенского «доктора-свата»



Страна: США
Продолжительность: 01:58:16
Перевод: Профессиональный (дублированный)

Файл
Кодек: XviD / MP3
Качество: HDRip
Видео: XviD, 688x280 (2.457), 23.976 fps, 744 Kbps (0.161 bit/pixel)
Звук: MP3, 48.0 KHz, 2 ch, 128 Kbps, CBR
General
Complete name : E:Hitch_HDRip.745_[Rutor.org].avi
Format : AVI
Format/Info : Audio Video Interleave
File size : 745 MiB
Duration : 1h 58mn
Overall bit rate : 881 Kbps
Writing application : VirtualDubMod 1.5.10.2 (build 2540/release)
Writing library : VirtualDubMod build 2540/release

Video
ID : 0
Format : MPEG-4 Visual
Format profile : Advanced Simple@L5
Format settings, BVOP : 1
Format settings, QPel : No
Format settings, GMC : No warppoints
Format settings, Matrix : Default (MPEG)
Codec ID : XVID
Codec ID/Hint : XviD
Duration : 1h 58mn
Bit rate : 744 Kbps
Width : 688 pixels
Height : 280 pixels
Display aspect ratio : 2.457
Frame rate : 23.976 fps
Color space : YUV
Chroma subsampling : 4:2:0
Bit depth : 8 bits
Scan type : Progressive
Compression mode : Lossy
Bits/(Pixel*Frame) : 0.161
Stream size : 629 MiB (84%)
Writing library : XviD 1.2.0.dev47 (UTC 2006-11-01)

Audio
ID : 1
Format : MPEG Audio
Format version : Version 1
Format profile : Layer 3
Codec ID : 55
Codec ID/Hint : MP3
Duration : 1h 58mn
Bit rate mode : Constant
Bit rate : 128 Kbps
Channel(s) : 2 channels
Sampling rate : 48.0 KHz
Compression mode : Lossy
Stream size : 108 MiB (15%)
Alignment : Aligned on interleaves
Interleave, duration : 42 ms (1.00 video frame)
Interleave, preload duration : 504 ms
Writing library : LAME3.97
Encoding settings : -m s -V 4 -q 2 -lowpass 17 -b 128



Скачать Правила.съема.Метод.Хитча.Hitch.(Энди.Теннант.Andy.Tennant).[2005.мелодрама.комедия.HDRip].torrent без регистрации
Золото ЗОЛОТАЯ РАЗДАЧА! СКАЧАННОЕ НЕ ЗАСЧИТЫВАЕТСЯ! Золото
Дата: Зарегистрирован   [ Тип: внутренний ] Как тут cкачать?
MAGNET ссылка
MAGNET ссылка


Скачать .torrent

15 KB

Статус: проверено DHT
Скачан: торрент - 144 раз, раздача полностью - 74 раз
Размер: 745 MB
Оценка:  5 (Голосов: 1)
Поблагодарили: 5
Поделиться ссылкой на эту раздачу с друзьями:
В контактеFacebookОдноклассникиTwitterLivejournalМой МирLiveinternet
 

 
Показать сообщения:    


Вы не можете начинать темы
Вы не можете отвечать на сообщения
Вы не можете редактировать свои сообщения
Вы не можете удалять свои сообщения
Вы не можете голосовать в опросах
Вы не можете прикреплять файлы к сообщениям
Вы можете скачивать файлы