Loading...
Error

Скачать Бермудский треугольник / The Triangle (Крэйг Р. Баксли / Craig R. Baxley) [2005, США, приключения, фантастика, триллер, DVDRip] MVO торрент без регистрации

 
Статистика раздачи
Размер:  2,18 GB   |    Скачан:  217 раз

Полного источника не было: 29 минут

 
Автор Сообщение

leon030982

[] 

Бермудский треугольник
/ The Triangle Год выпуска: 2005
Страна: США, Великобритания
Жанр: приключения, фантастика, триллер
Продолжительность: 01:28:29, 01:23:06, 01:23:32, весь фильм: 04:15:07
Перевод: Профессиональный (многоголосый закадровый)
Субтитры: нет
Оригинальная аудиодорожка: нет
Режиссер: Крэйг Р. Баксли / Craig R. Baxley
В ролях: Эрик Столц, Катрин Белл, Лу Дайэмонд Филлипс, Брюс Дэвисон, Майкл Э. Роджерс, Сэм Нил, Лиза Бреннер, Джон Слоун, Чарльз Мартин Смит, Бэрри Ингэм...
Описание: Миллиардер Эрик Бениролл нанимает команду специалистов, чтобы те попытались выяснить причину исчезновения в районе Бермудского треугольника принадлежавших ему кораблей. Команда — журналист-скептик, инженер, ученый и экстрасенс — отправились в заданный район и вскоре столкнулись с аномальными явлениями, но, как оказалось, это — только начало. Что происходит? Куда они плывут? Они живы или мертвы? Пришельцы или что-то еще?…


Качество видео: DVDRip, источник:
Формат видео: AVI
Видео: 688x384 (16:9), 23.976 fps, XviD ~ 1085 kbps avg, 0.171 bit/pixel
Аудио: Русский 48 kHz, MP3, 2 ch, 128.00 kbps Constant
Общее
Полное имя : Bermudskij.treugol'nik.2005.DVDRip.1seria.avi
Формат : AVI
Формат/Информация : Audio Video Interleave
Размер файла : 774 Мбайт
Продолжительность : 1 ч. 28 м.
Общий поток : 1222 Кбит/сек
Программа кодирования : VirtualDubModRus 1.5.10.2 (build 2542/release)
Библиотека кодирования : VirtualDubMod build 2542/release
Видео
Идентификатор : 0
Формат : MPEG-4 Visual
Профиль формата : Advanced Simple@L5
Параметр BVOP формата : 1
Параметр QPel формата : Нет
Параметр GMC формата : Без точки перехода
Параметр матрицы формата : Выборочная
Идентификатор кодека : XVID
Идентификатор кодека/Подсказка : XviD
Продолжительность : 1 ч. 28 м.
Битрейт : 1085 Кбит/сек
Ширина : 688 пикселей
Высота : 384 пикселя
Соотношение сторон : 16:9
Частота кадров : 23,976 кадра/сек
Цветовое пространство : YUV
Субдискретизация насыщенности : 4:2:0
Битовая глубина : 8 бит
Тип развёртки : Прогрессивная
Метод сжатия : С потерями
Бит/(Пиксели*Кадры) : 0.171
Размер потока : 687 Мбайт (89%)
Библиотека кодирования : XviD 1.2.1 (UTC 2008-12-04)
Аудио
Идентификатор : 1
Формат : MPEG Audio
Версия формата : Version 1
Профиль формата : Layer 3
Режим : Joint stereo
Расширение режима : MS Stereo
Идентификатор кодека : 55
Идентификатор кодека/Подсказка : MP3
Продолжительность : 1 ч. 28 м.
Вид битрейта : Постоянный
Битрейт : 128 Кбит/сек
Каналы : 2 канала
Частота : 48,0 КГц
Метод сжатия : С потерями
Размер потока : 81,0 Мбайт (10%)
Выравнивание : Соединение по промежуткам
Продолжительность промежутка : 42 мс. (1,00 видеокадр)
Время предзагрузки промежутка : 504 мс.
Общее
Полное имя : Bermudskij.treugol'nik.2005.DVDRip.2seria.avi
Формат : AVI
Формат/Информация : Audio Video Interleave
Размер файла : 726 Мбайт
Продолжительность : 1 ч. 23 м.
Общий поток : 1222 Кбит/сек
Программа кодирования : VirtualDubModRus 1.5.10.2 (build 2542/release)
Библиотека кодирования : VirtualDubMod build 2542/release
Видео
Идентификатор : 0
Формат : MPEG-4 Visual
Профиль формата : Advanced Simple@L5
Параметр BVOP формата : 1
Параметр QPel формата : Нет
Параметр GMC формата : Без точки перехода
Параметр матрицы формата : Выборочная
Идентификатор кодека : XVID
Идентификатор кодека/Подсказка : XviD
Продолжительность : 1 ч. 23 м.
Битрейт : 1085 Кбит/сек
Ширина : 688 пикселей
Высота : 384 пикселя
Соотношение сторон : 16:9
Частота кадров : 23,976 кадра/сек
Цветовое пространство : YUV
Субдискретизация насыщенности : 4:2:0
Битовая глубина : 8 бит
Тип развёртки : Чересстрочная
Порядок развёртки : Нижнее поле первое
Метод сжатия : С потерями
Бит/(Пиксели*Кадры) : 0.171
Размер потока : 645 Мбайт (89%)
Библиотека кодирования : XviD 1.2.1 (UTC 2008-12-04)
Аудио
Идентификатор : 1
Формат : MPEG Audio
Версия формата : Version 1
Профиль формата : Layer 3
Режим : Joint stereo
Расширение режима : MS Stereo
Идентификатор кодека : 55
Идентификатор кодека/Подсказка : MP3
Продолжительность : 1 ч. 23 м.
Вид битрейта : Постоянный
Битрейт : 128 Кбит/сек
Каналы : 2 канала
Частота : 48,0 КГц
Метод сжатия : С потерями
Размер потока : 76,1 Мбайт (10%)
Выравнивание : Соединение по промежуткам
Продолжительность промежутка : 42 мс. (1,00 видеокадр)
Время предзагрузки промежутка : 504 мс.
Общее
Полное имя : Bermudskij.treugol'nik.2005.DVDRip.3seria.avi
Формат : AVI
Формат/Информация : Audio Video Interleave
Размер файла : 730 Мбайт
Продолжительность : 1 ч. 23 м.
Общий поток : 1222 Кбит/сек
Программа кодирования : VirtualDubModRus 1.5.10.2 (build 2542/release)
Библиотека кодирования : VirtualDubMod build 2542/release
Видео
Идентификатор : 0
Формат : MPEG-4 Visual
Профиль формата : Advanced Simple@L5
Параметр BVOP формата : 1
Параметр QPel формата : Нет
Параметр GMC формата : Без точки перехода
Параметр матрицы формата : Выборочная
Идентификатор кодека : XVID
Идентификатор кодека/Подсказка : XviD
Продолжительность : 1 ч. 23 м.
Битрейт : 1085 Кбит/сек
Ширина : 688 пикселей
Высота : 384 пикселя
Соотношение сторон : 16:9
Частота кадров : 23,976 кадра/сек
Цветовое пространство : YUV
Субдискретизация насыщенности : 4:2:0
Битовая глубина : 8 бит
Тип развёртки : Прогрессивная
Метод сжатия : С потерями
Бит/(Пиксели*Кадры) : 0.171
Размер потока : 648 Мбайт (89%)
Библиотека кодирования : XviD 1.2.1 (UTC 2008-12-04)
Аудио
Идентификатор : 1
Формат : MPEG Audio
Версия формата : Version 1
Профиль формата : Layer 3
Режим : Joint stereo
Расширение режима : MS Stereo
Идентификатор кодека : 55
Идентификатор кодека/Подсказка : MP3
Продолжительность : 1 ч. 23 м.
Вид битрейта : Постоянный
Битрейт : 128 Кбит/сек
Каналы : 2 канала
Частота : 48,0 КГц
Метод сжатия : С потерями
Размер потока : 76,5 Мбайт (10%)
Выравнивание : Соединение по промежуткам
Продолжительность промежутка : 42 мс. (1,00 видеокадр)
Время предзагрузки промежутка : 504 мс.



Скачать Бермудский.треугольник.The.Triangle.(Крэйг.Р.Баксли.Craig.R.Baxley).[2005.США.приключения.фантастика.триллер.DVDRip].MVO.torrent без регистрации
Золото ЗОЛОТАЯ РАЗДАЧА! СКАЧАННОЕ НЕ ЗАСЧИТЫВАЕТСЯ! Золото
Дата: Зарегистрирован   [ Тип: внутренний ] Как тут cкачать?
MAGNET ссылка
MAGNET ссылка


Скачать .torrent

12 KB

Статус: проверено DHT
Скачан: торрент - 217 раз, раздача полностью - 1658 раз
Размер: 2,18 GB
Оценка:  5 (Голосов: 1)
Поблагодарили: 5
Поделиться ссылкой на эту раздачу с друзьями:
В контактеFacebookОдноклассникиTwitterLivejournalМой МирLiveinternet
 

 

[] 

Топик был перенесен из форума Зарубежные сериалы в форум Фильмы 2005-2008 года

МихаНЕзатор
 
Показать сообщения:    


Вы не можете начинать темы
Вы не можете отвечать на сообщения
Вы не можете редактировать свои сообщения
Вы не можете удалять свои сообщения
Вы не можете голосовать в опросах
Вы не можете прикреплять файлы к сообщениям
Вы можете скачивать файлы