Loading...
Error

Скачать Путеводитель: Автостопом по галактике / The Hitchhiker's Guide to the Galaxy (Гарт Дженнингс) [2005, фантастика, комедия, приключения, HDRip] [DUB] торрент без регистрации

 
Статистика раздачи
Размер:  751 MB   |    Скачан:  157 раз

Полного источника не было: 20 минут

 
Автор Сообщение

leon030982

[] 

Путеводитель: Автостопом по галактике / The Hitchhiker's Guide to the Galaxy
Страна: США, Великобритания
Жанр: фантастика, комедия, приключения
Год выпуска: 2005
Продолжительность: 01:48:46
Перевод: Профессиональный (дублированный)
Cубтитры: нет
Режиссер: Гарт Дженнингс / Garth Jennings
В ролях: Сэм Роквэлл, Билл Бэйли, Анна Ченселлор, Уорвик Дэвис, Мос Деф, Зуи Дешанель, Су Эллиот, Мартин Фриман, Стивен Фрай, Ричард Гриффитс
Описание: В один прекрасный день над Землей нависли огромные звездолеты инопланетян, и людям объявили, что их родная планета подлежит сносу, а на ее месте будет проложено шикарное межзвездное шоссе. Н-да, не повезло человечеству. Кроме самого заурядного парня по имени Артур Дент, старый друг и собутыльник которого Форд Перфект оказался… замаскированным инопланетянином!
Соавтор знаменитого путеводителя «Автостопом по Галактике», Форд не мог оставить того в беде и пригласил лишившегося дома приятеля составить ему компанию в странствиях по Вселенной. Ведь на свете так много странных, забавных и удивительных миров, еще не отмеченных в путеводителях и ждущих своих пытливых исследователей.

Сэмпл: http://onemove.ru/31171/
Качество видео: HDRip
Формат видео
: AVI
Автор рипа: avatar-aang

Видео: 656x272 (2.41:1); 23.976 fps; XviD build 50; 828 kbps avg; 0.19 bit/pixel
Аудио: 48 kHz, MPEG Layer 3, 2 ch, ~128.00 kbps avg
General
Complete name : C:\The.Hitchhikers.Guide.avi
Format : AVI
Format/Info : Audio Video Interleave
File size : 751 MiB
Duration : 1h 48mn
Overall bit rate : 966 Kbps
Writing application : VirtualDubMod 1.5.10.3 | www.virtualdub-fr.org || (build 2550/release)
Writing library : VirtualDubMod build 2550/release
Video
ID : 0
Format : MPEG-4 Visual
Format profile : Advanced Simple@L5
Format settings, BVOP : Yes
Format settings, QPel : No
Format settings, GMC : No warppoints
Format settings, Matrix : Custom
Codec ID : XVID
Codec ID/Hint : XviD
Duration : 1h 48mn
Bit rate : 828 Kbps
Width : 656 pixels
Height : 272 pixels
Display aspect ratio : 2.40:1
Frame rate : 23.976 fps
Color space : YUV
Chroma subsampling : 4:2:0
Bit depth : 8 bits
Scan type : Progressive
Bits/(Pixel*Frame) : 0.194
Stream size : 644 MiB (86%)
Writing library : XviD 1.2.1 (UTC 2008-12-04)
Audio
ID : 1
Format : MPEG Audio
Format version : Version 1
Format profile : Layer 3
Codec ID : 55
Codec ID/Hint : MP3
Duration : 1h 48mn
Bit rate mode : Constant
Bit rate : 128 Kbps
Channel(s) : 2 channels
Sampling rate : 48.0 KHz
Stream size : 99.5 MiB (13%)
Alignment : Aligned on interleaves
Interleave, duration : 42 ms (1.00 video frame)
Interleave, preload duration : 504 ms
Writing library : LAME3.98r
Encoding settings : -m s -V 4 -q 2 -lowpass 17 -b 128



Скачать Путеводитель.Автостопом.по.галактике.The.Hitchhiker's.Guide.to.the.Galaxy.(Гарт.Дженнингс).[2005.фантастика.комедия.приключения.HDRip].[DUB].torrent без регистрации
Золото ЗОЛОТАЯ РАЗДАЧА! СКАЧАННОЕ НЕ ЗАСЧИТЫВАЕТСЯ! Золото
Дата: Зарегистрирован   [ Тип: внутренний ] Как тут cкачать?
MAGNET ссылка
MAGNET ссылка


Скачать .torrent

15 KB

Статус: проверено DHT
Скачан: торрент - 157 раз, раздача полностью - 682 раз
Размер: 751 MB
Оценка:  - (Голосов: 0)
Поблагодарили: 3
Поделиться ссылкой на эту раздачу с друзьями:
В контактеFacebookОдноклассникиTwitterLivejournalМой МирLiveinternet
 

 

leon030982

[] 

режиссёр явно планокур ag ag ag такое в здравом уме и при памяти точно не придумаешь ag ag ag
 
Показать сообщения:    


Вы не можете начинать темы
Вы не можете отвечать на сообщения
Вы не можете редактировать свои сообщения
Вы не можете удалять свои сообщения
Вы не можете голосовать в опросах
Вы не можете прикреплять файлы к сообщениям
Вы можете скачивать файлы